<?xml version="1.0" standalone="no"?>
<!DOCTYPE svg PUBLIC "-//W3C//DTD SVG 1.1//EN" "http://www.w3.org/Graphics/SVG/1.1/DTD/svg11.dtd" >
<svg xmlns="http://www.w3.org/2000/svg" xmlns:xlink="http://www.w3.org/1999/xlink" version="1.1">
<metadata>
Created by FontForge 20181107 at Wed Mar 14 17:24:53 2018
 By convertio
Copyright (c) 2018 by Sarid Ezra. All rights reserved.
</metadata>
<defs>
<font id="AurelieSmith-Script" horiz-adv-x="833" >
  <font-face 
    font-family="Aurelie Smith Script"
    font-weight="400"
    font-stretch="normal"
    units-per-em="1000"
    panose-1="0 0 0 0 0 0 0 0 0 0"
    ascent="750"
    descent="-250"
    x-height="246"
    cap-height="607"
    bbox="-248.632 -327.882 987.778 772"
    underline-thickness="50"
    underline-position="-100"
    unicode-range="U+000D-FB06"
  />
<missing-glyph horiz-adv-x="318" 
 />
    <glyph glyph-name="b_b" unicode="bb" horiz-adv-x="456" 
d="M178 218q9 -26 2.5 -46t-25.5 -35q-15 -12 -32.5 -19t-36.5 -12q-17 -4 -35 -7t-37 -7q-2 -4 -4 -7.5t-4 -7.5q-4 -11 -7 -21.5t-7 -21.5q-2 -6 -5 -11.5t-9 -10.5q-2 0 -5 -0.5t-6 0.5q-16 4 -16 18q2 5 3 10.5t4 10.5q13 30 20.5 62.5t17.5 64.5q25 84 53 164.5
t66 156.5q8 17 16.5 33t16.5 32q3 6 6.5 11.5t8.5 9.5q6 0 8 -1q8 -5 8 -15q-45 -93 -79.5 -190t-63.5 -199q-1 -1 2 -6q5 4 9 8.5t8 9.5q18 18 44 36q5 4 11 6.5t13 4.5q23 11 47 -12q2 -2 4 -4.5t4 -4.5zM36 122q9 2 15 3t11 3q36 10 66 30q8 6 13.5 13.5t10.5 16.5
q5 14 -1 25q-7 6 -17 2q-5 -2 -10 -5.5t-9 -6.5q-23 -16 -42 -36t-37 -45zM216 22q-3 -7 -6 -14.5t-7 -15.5q-4 -1 -7 -1.5t-7 -0.5q-16 2 -14 17q0 5 2 13q22 70 42 140t44 139q20 54 38.5 107.5t40.5 106.5q13 32 27 62.5t31 59.5q2 2 5 2.5t5 2.5q12 -5 9 -15
q0 -5 -4 -13q-8 -18 -15 -35.5t-14 -35.5q-22 -55 -41 -110t-37 -111q-14 -42 -26.5 -82.5t-25.5 -82.5q-2 -4 -2 -8t-1 -7q3 -3 4 -1.5t2 2.5q19 21 37.5 41.5t39.5 38.5q8 8 17.5 15t21.5 14h23q7 -3 11 -8t8 -12q5 -19 -0.5 -35.5t-13.5 -32.5q-29 -60 -84 -93
q-25 -14 -49.5 -27t-53.5 -20zM230 50q23 10 41 20.5t35 21.5q28 18 47 42.5t33 54.5q3 8 5 15.5t1 16.5q-1 2 -2 3.5t-2 3.5q-2 -1 -4 -1t-4 -2q-5 -4 -10 -7t-10 -8q-36 -33 -68 -69.5t-58 -78.5q-1 -1 -4 -12z" />
    <glyph glyph-name="d_d" unicode="dd" horiz-adv-x="423" 
d="M216 134q-6 -1 -8.5 -5.5t-5.5 -8.5q-8 -13 -17 -23.5t-20 -21.5q-4 -4 -12 -10q-10 -4 -15 -5q-20 2 -32 15q-13 15 -15 36q-1 6 -1.5 12.5t-0.5 12.5q-5 0 -6.5 -3t-3.5 -5l-22 -24t-25 -22q-12 -8 -23 -14t-17 -4t-18 14q-6 20 -1 42q7 29 18.5 54t26.5 48
q10 14 19.5 20.5t27.5 11.5q8 -3 13 -4.5t9 -4.5t8.5 -8t12.5 -14q5 3 6 4l12 24l28 60l28 60q24 49 49 98q1 3 2.5 5.5t2.5 4.5q9 7 19 -3q7 -7 4 -15q-1 -5 -2.5 -9t-3.5 -9q-35 -73 -70 -149q-15 -34 -29 -67.5t-25 -68.5q-2 -9 -4 -17.5t-4 -16.5q-4 -16 1 -37
q2 -2 4 -3.5t4 -3.5h7q11 6 19 13t15 17q13 20 26 38.5t25 38.5q18 29 37 51q0 1 3 4q6 6 12.5 10t15.5 4q17 1 30 -16q2 4 4 6.5t3 5.5q17 44 33 87.5t28 88.5q2 8 5 15t6 15q15 6 25 -12q-2 -5 -3 -10.5t-3 -11.5q-17 -50 -29 -100.5t-20 -102.5q-9 -52 -16 -104t-15 -105
q-3 -23 -5.5 -45.5t-5.5 -45.5q0 -13 -11 -16q-2 1 -4 1.5t-4 2.5q-4 4 -6 7q-1 14 1 26.5t3 26.5q2 14 2 27.5t1 27.5l6 51q1 14 3 27t2 27q2 14 5 27t1 27h-7q-14 -31 -27 -63t-33 -61q-2 -3 -5 -6l-5 -5q-19 -7 -32 14q-2 13 -3 26.5t1 27.5q2 5 1 9.5t0 9.5q1 1 2.5 1
t-1.5 2q-1 -1 -0.5 -2t-0.5 -2zM77 228q-11 0 -13.5 -0.5t-5.5 -2.5q-6 -7 -13 -13.5t-12 -14.5q-29 -44 -38 -97q-1 -3 1 -8h4q13 8 28 21q11 12 22.5 24.5t22.5 26.5q6 8 11.5 15.5t9.5 17.5q-5 8 -7 17t-10 14zM242 82q9 13 19 30.5t19.5 36.5t16.5 36t10 28q-2 13 -9 19
q-12 -9 -17.5 -17.5t-12.5 -25.5q-11 -24 -17.5 -50t-8.5 -57z" />
    <glyph glyph-name="e_e" unicode="ee" horiz-adv-x="377" 
d="M107 229q-16 -29 -41 -46t-53 -31q-8 -9 -9.5 -21.5t-3.5 -24.5q-1 -5 -0.5 -10t0.5 -9q7 -9 14 -7q5 2 10 3.5t10 3.5q15 8 28.5 17t25.5 19l81 66q10 20 26 34.5t36 25.5q23 13 48 7q7 -3 11 -8t6 -10q-1 -14 -8 -22t-17 -14q-14 -8 -27.5 -14t-27.5 -13
q-6 -3 -11.5 -5t-12.5 -4q-5 -8 -5 -18t10 -21q14 -5 26 -3.5t24 4.5q17 4 31.5 8.5t28.5 10.5t28.5 14t32.5 20q5 3 9.5 5.5t12.5 -0.5q0 -2 1.5 -5t3.5 -6q-2 -2 -3 -3.5t-3 -2.5q-19 -13 -43 -27.5t-49.5 -25.5t-51.5 -15.5t-48 2.5q-19 8 -27 23q-2 5 -5 10.5t-6 11.5
q-8 -3 -10 -5q-13 -11 -25 -21.5t-26 -20.5q-11 -8 -23 -15t-24 -15q-5 -3 -11.5 -5t-11.5 -4q-29 -9 -43 22q-2 3 -3 5.5t-3 6.5q-1 38 11 69.5t29 61.5q7 10 15.5 17t17.5 13q13 9 33 6q15 -3 18 -15q2 -5 2.5 -9.5t1.5 -9.5zM216 202q2 0 3 -0.5t3 0.5q23 9 40 25
q2 1 2 2.5t1 3.5q-1 0 -1.5 1t-1.5 0q-28 -8 -44 -27q-1 -1 -1 -5q-4 -2 -5 -2l2 -2q2 2 2 4zM31 191h4t4 1q11 8 21.5 18t18.5 22q1 2 0.5 3.5t0.5 3.5q-8 3 -11.5 -0.5t-7.5 -6.5q-11 -8 -19.5 -17.5t-10.5 -23.5q-1 -1 -2 -1q-1 -1 -1 -2z" />
    <glyph glyph-name="f_f" unicode="ff" horiz-adv-x="323" 
d="M230 358q-5 1 -7 -2t-4 -5q-11 -10 -20.5 -20t-20.5 -21q-19 -18 -39 -34.5t-43 -30.5q-10 -7 -20 -12.5t-21 -11.5q0 -4 -0.5 -8t-0.5 -8q0 -17 -3 -34t-7 -34q-13 -57 -31.5 -111.5t-38.5 -108.5q-3 -9 -7 -18t-9 -17q-2 -3 -3.5 -6.5t-3.5 -5.5q-3 -2 -7 -4.5t-8 -2.5
q-3 0 -6.5 2t-7.5 4q-4 14 -3 27.5t3 27.5q6 29 13.5 57.5t15.5 57.5q26 92 58 181t67 177q4 10 8 19.5t9 18.5q2 3 5.5 5.5t6.5 5.5q3 -2 5 -4.5t4 -4.5q-6 -24 -16 -47t-18 -46t-17 -46t-16 -46q4 -5 7.5 -4.5t5.5 2.5q16 11 31.5 21t29.5 22q29 23 55 48.5t50 53.5l51 57
q4 4 6 5q10 1 15 -6q5 -6 2 -16q-5 -10 -11 -19q-11 -22 -22.5 -49t-22 -56t-20 -57t-17.5 -51q-2 -8 -3 -13q7 -4 13.5 -3t12.5 2q20 2 40.5 4.5t41.5 4.5h23q3 -4 6 -7l7 -7q-1 -4 -3 -10q-2 -1 -3 -2t-3 -1q-11 -2 -20.5 -3.5t-19.5 -4.5q-16 -4 -36 -4h-62
q-1 -2 -2 -4.5t-1 -4.5q-1 -23 -3 -40.5t-5 -34t-7.5 -34t-9.5 -39.5q-8 -29 -15.5 -58.5t-15.5 -58.5q-4 -14 -7 -29l-6 -30q-2 -13 -13 -17q-2 1 -5 2l-6 2l-3 6q-2 40 4 74q2 13 3 26t3 26q3 24 6.5 42.5t7.5 35.5t9.5 35.5t11.5 41.5q7 27 16 59t18.5 64t20.5 63t23 57
q2 4 3.5 7.5t0.5 8.5q1 1 2.5 1t-0.5 2q0 -1 -0.5 -1.5t-0.5 -2.5zM-41 -49h1q1 0 1 1q20 50 36 100.5t27 103.5q2 8 3 17t2 17q-6 -8 -9 -16q-17 -51 -31.5 -102t-28.5 -103q-1 -5 -0.5 -9.5t-0.5 -9.5q-1 -1 -2.5 -1t0.5 -3q0 1 2 5z" />
    <glyph glyph-name="g_g" unicode="gg" horiz-adv-x="420" 
d="M122 224q-8 -3 -11.5 -9t-7.5 -11q-14 -17 -26 -34t-26 -34q-11 -12 -22 -23l-22 -22q-4 -5 -8.5 -7.5t-9.5 -5.5q-14 -7 -30 7q-6 16 1 34q2 7 4.5 13.5t6.5 11.5q18 31 39 58.5t47 52.5q5 4 9.5 7.5t9.5 7.5q11 9 23 13.5t26 1.5q5 -1 10.5 1t10.5 3q7 -4 8.5 -5.5
t6.5 -9.5q-6 -34 -14.5 -68t-17.5 -69q10 2 14.5 6.5l9.5 9.5q6 5 11.5 10t10.5 10t10.5 9t10.5 9q12 9 23 20q5 5 10.5 9t10.5 9q6 5 11 10.5t10 10.5t10 9.5t9 7.5q16 5 22 -4q6 -10 -2 -18q-3 -1 -10 -1q-13 -8 -17 -21q5 -2 8.5 -3t7.5 -3q10 -10 10 -22q0 -9 0.5 -19
t-1.5 -19q-4 -24 -8 -47.5t-11 -46.5q-1 -2 1 -6q5 1 7 4.5t4 5.5q16 18 28 30t23 23.5t24 23t31 27.5q7 6 14.5 12t17.5 8q8 -5 9.5 -6.5t3.5 -9.5q-14 -6 -26.5 -15.5t-23.5 -20.5q-15 -15 -24 -24.5t-17.5 -18t-17.5 -18t-23 -24.5q-11 -11 -21 -23t-21 -24
q-7 -8 -11 -16.5t-7 -17.5q-14 -40 -29.5 -78.5t-35.5 -76.5q-8 -15 -16 -29t-18 -27q-7 -8 -14.5 -15.5t-17.5 -12.5h-18l-6 6q-5 6 -5.5 12.5t1.5 13.5q2 10 5.5 20t7.5 19q8 20 19 38.5t23 36.5q17 26 34.5 51.5t37.5 49.5q14 17 19 36q10 32 19 64.5t15 65.5q1 6 1 12.5
v14.5q-8 -7 -11.5 -14t-8.5 -14q-7 -11 -13.5 -21t-14.5 -20q-6 -7 -16 -14q-18 -12 -30 7q-2 6 -3 8q1 11 5 21t8 21q-6 -3 -14.5 -9.5t-18.5 -15.5t-20.5 -19t-19.5 -19q-8 -23 -15.5 -46t-15.5 -46q-14 -41 -30 -81t-36 -79q-12 -24 -26.5 -46t-34.5 -42q-9 -9 -19 -17.5
t-24 -15.5q-3 0 -7.5 -1t-9.5 -1q-30 0 -33 29q-3 23 3 47q8 29 21 55t29 52q17 26 36 51.5t41 48.5q20 23 41 44.5t42 43.5q14 14 18 31q7 25 13.5 50t13.5 51q1 2 0.5 5t-0.5 6zM256 202q-4 -4 -6 -5q-4 -2 -4.5 -5t-0.5 -6q-12 -5 -11 -17q-8 -5 -11.5 -10.5t-5.5 -16.5
q-5 -2 -5.5 -5t0.5 -7h-3.5t0.5 -3q2 2 2 4q8 3 6 11q8 5 11 11t5 17q11 2 11 16q5 2 5.5 5t0.5 6q5 0 5 6q1 1 1.5 1t1.5 1q-1 -1 -1 -1.5t-1 -1.5zM117 -233q5 0 5 1q5 5 9 10t8 11q16 23 27 48.5t23 50.5q1 2 0.5 5t-0.5 6q4 2 4 3l-1 11q-2 -7 -2 -9.5v-4.5
q-2 -2 -4.5 -3t-4.5 -3l-12 -18t-11 -18q-11 -18 -21.5 -36.5t-16.5 -38.5q-2 -4 -2 -8v-8q-5 0 -2 -3q0 1 0.5 1.5t0.5 2.5zM68 32q-18 -11 -31.5 -26.5t-27.5 -31.5q-23 -26 -44 -53t-38 -57q-12 -20 -22 -41t-16 -44q-6 -21 -3 -41q1 -8 9 -9q18 9 30.5 19.5t25.5 27.5
q17 23 30.5 46.5t24.5 49.5q14 33 27.5 67t26.5 68q3 6 4.5 12.5t3.5 12.5zM116 265q-4 2 -7 0.5t-5 -3.5q-17 -12 -30 -24q-23 -21 -41 -44.5t-35 -49.5q-5 -8 -9 -17t-8 -17q-4 -6 2 -10q18 14 33.5 30t29.5 34q17 23 34 46.5t34 47.5q1 2 1 3.5t1 3.5z" />
    <glyph glyph-name="h_h" unicode="hh" horiz-adv-x="431" 
d="M39 187q22 26 42.5 51t51.5 40q5 -2 8.5 -4.5t7.5 -4.5q5 -10 4 -19.5t-3 -19.5q-5 -23 -9.5 -45.5t-8.5 -45.5q-4 -19 -7 -37t-6 -37q-2 -14 -5 -27t-5 -27q-1 -8 -1 -17.5t-2 -17.5q0 -4 -1.5 -7.5t-2.5 -7.5q-18 -7 -26 9q0 5 -0.5 11.5t0.5 13.5l2 22t3 22
q4 31 9.5 61.5t13.5 60.5q5 18 9.5 35.5t9.5 35.5q1 4 1 7t-3 7q-20 -17 -37 -36.5t-32 -41.5q-14 -21 -24 -44.5t-20 -46.5q-16 -7 -26 6q0 5 -0.5 10.5t1.5 10.5q5 32 12.5 62.5t15.5 61.5q14 55 32 109t38 108q10 26 22.5 50.5t26.5 48.5q4 6 8.5 12t12.5 11q3 -2 6 -4.5
t7 -4.5q-2 -10 -4 -14q-8 -17 -15 -34t-15 -34q-17 -38 -29.5 -77t-25.5 -78q-8 -25 -15 -50t-15 -50q-2 -8 -4 -15t-4 -15q1 0 1 -1q0 -2 1 -3zM306 70q5 -2 8 0l6 4q12 12 24.5 24t23.5 25q13 13 25 26l24 26q6 6 14 12q7 1 9.5 -1.5t5.5 -7.5q-4 -5 -6.5 -9.5t-6.5 -8.5
q-17 -20 -34 -39t-34 -39q-6 -6 -12.5 -12t-12.5 -12q-10 -8 -21 -11.5t-24 1.5q-11 8 -14 20t-2 25q0 17 1.5 33t3.5 33q0 10 0.5 19.5t1.5 18.5q-3 3 -5 1.5t-4 -3.5l-45 -45q-5 -6 -11 -12.5t-12 -12.5q-4 -4 -8 -6.5t-9 -6.5l-7 3.5t-6 3.5q-1 2 -2 3.5t-1 3.5
q1 9 1.5 18.5t3.5 19.5q8 32 14.5 64t14.5 64q10 36 20 72.5t21 72.5q5 17 11 32.5t12 31.5q2 5 4 9t4 9q2 2 4.5 3.5t5.5 3.5q3 -2 5 -4.5t5 -4.5q-29 -86 -52.5 -172t-41.5 -174q0 -2 0.5 -4t0.5 -4q8 5 14 11.5t11 12.5q7 6 13 12.5t13 12.5q6 6 10 9q5 3 10 5.5t11 1.5
q8 -1 11.5 -5t7.5 -10q1 -12 1 -24.5t-3 -26.5t-4 -29t-2 -29q-1 -9 1 -17.5t3 -16.5z" />
    <glyph glyph-name="k_k" unicode="kk" horiz-adv-x="452" 
d="M124 229q15 -5 20 -11t5 -20q0 -15 -7 -26q-8 -13 -19 -23t-26 -15l-22 -6l-22 -6q-3 -3 -3 -7.5t1 -9.5q9 -50 19.5 -98.5t24.5 -97.5q2 -8 3 -11q-5 -5 -8.5 -5.5t-8.5 0.5q-10 4 -15 18l-8 28l-8 28q-4 17 -7.5 33.5t-6.5 33.5t-5.5 35t-4.5 38q-14 -16 -23 -33.5
t-16 -36.5h-18q-1 4 -2.5 7t-0.5 6q1 8 3 15l4 14q12 48 24 94.5t25 94.5q14 53 31.5 104t35.5 103q2 5 3.5 11t3.5 12q8 9 12 8.5t12 -11.5q0 -8 -2.5 -14.5t-4.5 -14.5q-9 -28 -18.5 -55.5t-18.5 -56.5q-17 -52 -31 -104t-28 -105q0 -1 0.5 -2t0.5 -3q4 -2 5 0.5t3 4.5
q13 17 27.5 32t30.5 30q9 8 19 14t21 8zM125 212q-22 -11 -38 -28t-30 -35q-1 -1 1 -6q6 2 13 2.5t13 2.5q35 12 47 47q1 4 0 8t-6 9zM199 130q-18 -20 -28.5 -41t-21.5 -42h-15q-5 5 -5 9t2 9q13 28 21.5 57t17.5 58q13 40 24.5 80t23.5 80q13 40 28 78t34 75q7 12 13 18
q5 8 15 3q9 -7 2 -17q-10 -14 -16.5 -30t-13.5 -32q-14 -31 -25.5 -62.5t-20.5 -63.5q-11 -35 -21 -69t-21 -68q-1 -3 -1.5 -6.5t2.5 -5.5q13 14 25 27t26 26q8 8 16 14l16 12q17 13 37 5q14 -14 6 -33q-5 -14 -13.5 -24.5t-19.5 -18.5q-22 -15 -47 -22q-4 -2 -7.5 -3
t-8.5 -3q0 -8 1 -12q4 -14 8 -27.5t8 -27.5q3 -11 6.5 -21t9.5 -20q8 -16 22 -23q9 -2 16.5 1t14.5 8q16 10 28 23t24 27q7 9 19.5 25t25.5 33t25 33.5t20 25.5q2 2 4 3q11 2 13 0.5t5 -10.5q-5 -6 -9.5 -12.5t-9.5 -13.5q-5 -6 -14 -18.5t-19 -26.5t-19 -26.5t-14 -18.5
q-23 -26 -47 -50q-11 -11 -25 -17q-23 -12 -41 -6.5t-31 20.5q-18 22 -26 54l-12 45q-1 5 -3 9.5t-4 12.5zM227 162q20 5 33.5 13t24.5 19q10 10 15 23q1 2 0 5t-1 7q-10 -4 -17 -9.5t-13 -11.5q-11 -9 -21.5 -19.5t-20.5 -26.5z" />
    <glyph glyph-name="l_l" unicode="ll" horiz-adv-x="251" 
d="M187 329q-4 -5 -7.5 -9.5t-5.5 -9.5q-28 -45 -54.5 -89.5t-53.5 -89.5q-8 -13 -16.5 -25.5t-19.5 -22.5q-11 -3 -14.5 -2.5t-12.5 5.5q-12 19 -10 44q2 72 16.5 138.5t37.5 132.5q8 20 15 40t15 40q2 3 4.5 6t4.5 7q4 -2 10 -3.5t9 -3.5q0 -10 -3.5 -18.5t-5.5 -16.5
q-9 -26 -18.5 -52.5t-17.5 -53.5q-14 -45 -24 -90.5t-15 -93.5q-3 -22 -2 -41q-1 -4 1.5 -6t2.5 -8q4 2 2.5 1t0.5 1l21 30q49 77 94 155t88 159q3 6 5.5 13t5.5 13q2 4 5 7t9 3q2 -2 5 -4.5t5 -4.5q2 -5 1 -7q-9 -30 -18.5 -60t-19.5 -59q-22 -62 -38 -124.5t-24 -128.5
q-2 -14 -1.5 -28.5t-0.5 -28.5q-2 -27 -0.5 -54t3.5 -54q1 -6 1.5 -12t0.5 -12q2 -11 6 -20t15 -16q1 -2 3 -8q-2 -2 -4 -3l-4 -2q-14 2 -22 10t-13 21q-3 11 -5.5 22.5t-3.5 23.5q-4 32 -4 63t1 63q1 63 14.5 122t30.5 118q2 6 4 11.5t0 12.5q2 2 3 2q0 -1 -2 -3z" />
    <glyph glyph-name="m_m" unicode="mm" horiz-adv-x="814" 
d="M-21 94q-3 19 2 37q4 13 5.5 17.5t2 7.5t2 8t4.5 18q5 20 10.5 40t10.5 40q4 5 14 4.5t15 -4.5q3 -6 2.5 -12.5t-2.5 -13.5q-5 -18 -9.5 -36t-9.5 -36q-2 -8 -2 -7.5t0.5 2.5t0.5 2.5t-2 -7.5q-1 -5 -1 -16q3 2 4.5 2.5t3.5 2.5q16 20 34 36t37 33l6 4t5 4q10 5 19 4
q11 -1 17 -14q4 -17 -1 -39q-2 -10 -4 -19t-4 -19q-1 -3 -1 -6t4 -7q8 8 15 16.5t14 16.5q22 25 44 49.5t48 45.5q5 5 10.5 8.5t12.5 5.5q7 -1 12 -3.5t10 -10.5q5 -20 -1 -40.5t-6 -42.5q13 9 21 20.5t18 21.5q10 11 19 21t20 18q16 0 19.5 -3t8.5 -23q-2 -14 -3.5 -28
t-0.5 -28q1 -1 2 -1l1 -1q2 1 2.5 2t1.5 2q7 8 13 16t14 16q11 11 22 22.5t22 22.5q8 8 17 14.5t21 10.5q4 -2 8 -3t8 -3q11 -12 11.5 -24.5t-1.5 -26.5l-3 -27q0 -2 1 -3.5t1 -3.5q7 0 10 3.5t7 6.5q14 14 28.5 28t28.5 28q6 6 13 12t16 8q10 -1 16.5 -7.5t8.5 -15.5
q-2 -8 -4 -17t-4 -19q-13 -34 -10.5 -53t14 -26.5t29.5 -6t38 10t38 21.5t30 28q3 3 6.5 6t6.5 6q11 0 16 -10q4 -12 -3 -19q-35 -38 -76.5 -55.5t-74.5 -12.5t-49.5 34t0.5 83q-4 2 -5.5 0.5l-3.5 -3.5l-39 -39q-5 -5 -10.5 -10t-10.5 -9q-9 -2 -16.5 -2.5t-14.5 4.5
t-9.5 12t-3.5 15q-2 9 -1 18t1 17q1 5 1.5 8.5t0.5 8.5l-2 6q-2 -1 -4.5 -1.5t-4.5 -2.5q-18 -16 -34.5 -32.5t-30.5 -35.5q-5 -6 -9.5 -12t-9.5 -12q-2 -2 -4.5 -5t-5.5 -5q-10 -8 -22 -4t-14 17q-1 4 -1 8t-1 8q0 7 0.5 13t0.5 12q1 5 1 10.5t1 11.5q-4 3 -9 -2
q-10 -12 -19.5 -24t-19.5 -23q-11 -15 -26 -30q-3 -1 -5 -2t-4 -1q-8 2 -11 2q-10 9 -12 19.5t0 21.5q2 12 4.5 23.5t4.5 22.5q0 4 1 8t-4 8q-37 -32 -68 -68t-62 -74q-6 0 -11.5 -0.5t-9.5 -0.5q-10 5 -13 12.5t-3 16.5q0 12 2.5 23.5t4.5 22.5l4 16l4 16q-2 4 -5 3.5
t-5 -2.5q-14 -14 -29 -28.5t-30 -29.5q-8 -8 -16 -17t-16 -17q-2 -3 -4 -5.5t-5 -4.5q-7 -5 -13 -5q-3 1 -12 3t-12 4z" />
    <glyph glyph-name="n_n" unicode="nn" horiz-adv-x="679" 
d="M27 151q2 1 4 1t4 1l33 30q20 19 41.5 35.5t44.5 32.5q6 5 13 8t15 3q16 0 23 -16q1 -3 3 -11q-4 -29 -12.5 -57t-13.5 -57q6 0 9 3t6 5l108 102q9 9 18.5 17t23.5 11l15 -9q3 -12 0.5 -30t-7.5 -37t-10.5 -36.5t-6.5 -29.5q5 0 8 3.5t5 5.5q9 9 20.5 23.5t23.5 30t24 29
t22 21.5q5 4 10 7.5t10 7.5q11 8 23 5q5 -1 7.5 -3.5t10.5 -14.5v-82q0 -8 1 -16t5 -16q4 -4 5 -6q8 -7 19 -3q8 3 16.5 6t16.5 8q22 13 43.5 26t43.5 27q7 5 13.5 9t14.5 9q10 5 20 -2q0 -6 3 -15q-5 -4 -9.5 -8t-9.5 -8q-27 -18 -54 -36.5t-53 -36.5q-8 -5 -17 -9t-18 -7
q-18 -5 -35.5 2.5t-26.5 23.5q-10 19 -11 37v62v16q-7 1 -10 -3t-7 -6q-4 -3 -7.5 -5.5t-7.5 -6.5q-8 -8 -19 -21t-22 -27t-21.5 -27.5l-17.5 -22.5q-2 -4 -6 -7t-7 -6q-2 -2 -5 -3t-5 -3q-8 -3 -16 1.5t-8 13.5q-1 18 2 38q1 5 4.5 15.5t7.5 22t7.5 22t4.5 15.5q1 4 1 8.5
t1 9.5q-4 -2 -5.5 -2t-3.5 -1q-26 -26 -53 -50.5t-53 -49.5q-12 -12 -26.5 -20.5t-26 -8.5t-16 11t3.5 37q5 20 10.5 39.5t10.5 39.5q1 5 1.5 9.5t1.5 9.5q-5 2 -8.5 -0.5t-6.5 -4.5q-22 -14 -42 -29.5t-39 -32.5l-48 -45q-5 -5 -11 -9t-14 -5q-2 2 -12 4t-12 4
q-4 9 -3.5 17.5t2.5 16.5q4 16 6 25t3.5 16t3.5 15.5t5 24.5q2 9 9.5 9t14.5 -6.5t10 -18t-5 -26.5q-3 -5 -3.5 -3t0.5 4.5t1.5 3t-0.5 -6.5q-2 -9 -4.5 -18t-0.5 -20h-3v-2q2 2 2 3z" />
    <glyph glyph-name="o_o" unicode="oo" horiz-adv-x="278" 
d="M286 192q6 -11 7 -14.5t-4.5 -5.5t-17.5 -4.5t-32 -9.5l-2.5 -5t-1.5 -5q-2 -14 -8 -26.5t-12 -24.5q-2 -4 -5 -8t-6 -7q-8 -11 -23 -16q-14 -5 -27 1q-16 11 -14 31v17.5t4 17.5l5 20q-9 -5 -14 -7.5t-13 -5.5q-8 -2 -15 -3.5t-15 -3.5l-25 -39q-11 -16 -24 -30.5
t-27 -27.5q-11 -10 -17 -11.5t-23 0.5q-14 10 -14 29q0 10 1 20t3 20q10 45 28.5 85.5t41.5 78.5q5 7 10 13.5t13 11.5l21 -5q5 1 12 4.5t17 0.5l11 -12l6 -27q-3 -42 -21 -84q2 0 4 -0.5t4 0.5q13 5 22 11t19 16q8 7 14 13.5t13 13.5q3 3 6.5 5.5t5.5 4.5q19 -9 26.5 -15
t18.5 -22q12 1 24.5 0.5t23.5 4.5zM-15 46q9 0 13 4l8 8q40 37 65 87q-6 12 -9.5 20.5t-5 19t-0.5 25.5t4 40q-6 -8 -10 -15l-8 -14q-11 -20 -20 -41t-17 -42q-6 -15 -10 -30t-9 -30q-3 -13 -1 -32zM170 86q11 8 15 11t9 14q7 13 12 26.5t5 28.5q-5 4 -9 7t-9 6l-3 -1
q-11 -16 -16 -34t-10 -37q-1 -5 -1.5 -9.5t2.5 -9.5q3 0 5 -2zM99 259q-11 -16 -15.5 -29t-5.5 -30q0 -9 1 -11.5t6 -10.5q7 9 9.5 19t4.5 21q2 10 3 20t-3 21z" />
    <glyph glyph-name="r_r" unicode="rr" horiz-adv-x="289" 
d="M31 169q9 11 20 25.5t22.5 29t23 27t22.5 20.5t26 15q11 4 24 -2q12 -8 11 -21q-2 -1 -3.5 -2t-3.5 -2q-3 2 -6 2.5t-7 2.5q-3 0 -5 -1q-12 -8 -25 -21.5t-25 -28.5t-23 -30t-20 -27q-10 -13 -17.5 -26.5t-15.5 -27.5q-6 -14 -12 -24q-20 -8 -30 14q2 8 2.5 17t2.5 17
q2 14 3.5 25t3.5 21t4 20.5t6 24.5q2 8 5 15t9 14h18q2 -4 3.5 -7.5t3.5 -6.5q-10 -12 -12 -16.5t-4 -18.5q-1 -6 -2 -8t-1 -4t0.5 -5.5zM117 85q5 17 4.5 33.5t0.5 33.5v9.5t1 9.5q1 9 5 20q5 5 9.5 4t9.5 -6q1 -5 2 -10.5t3 -13.5q33 47 74 79q5 4 10 7.5t9 6.5
q16 0 19 -2t6 -14q-1 -1 -1 -2t-2 -2q-21 -17 -39.5 -35t-35.5 -38q-16 -17 -28 -37t-18 -44q-2 -6 -4 -10q-10 -3 -13 -1.5t-12 12.5z" />
    <glyph glyph-name="s_s" unicode="ss" horiz-adv-x="316" 
d="M163 84q-5 17 -8.5 34t-7.5 35l-10 39l-32 -28l-56 -50v1q-1 -4 -1 -11q-3 -35 -18.5 -62t-38.5 -49q-15 -15 -37 -21h1q-11 -4 -22 -4t-21 11q-6 10 -5 17.5t6 15.5q16 27 38 46l38 36l24 21l11 10q0 7 -2.5 15t-5.5 13l-19 32q-11 19 -11 31q0 14 8.5 25t20.5 17
q9 5 24 7q16 2 28 -7q4 -3 7.5 -7t2.5 -12l-8 -5q-4 3 -7 5t-7 4h1q-17 3 -32 -6q-14 -10 -16 -31q3 -7 7.5 -15.5t9.5 -16.5t9 -14.5t8 -16.5q1 0 2 1t2 1l-1 -1l5 3q22 18 47 40.5t40 42.5q2 15 4.5 30.5t10.5 29.5q4 6 9 11t15 9q2 0 4.5 -0.5t7.5 -2.5q17 -8 10 -28
q-2 -5 -5 -11.5t-8 -13.5q-5 -8 -12 -18.5t-13 -18.5q2 -26 6.5 -56.5t12.5 -56.5q8 0 14 8q23 22 46.5 42t49.5 39l23 14l9 6q13 7 28 3q6 -1 11 -14q-10 -2 -16.5 -4t-12 -4.5t-10.5 -6.5t-13 -10q-19 -16 -39 -32.5t-38 -32.5q-7 -5 -12.5 -10t-11.5 -11l-14 -14
q-3 -2 -5 -4.5t-4 -5.5v-7t1 -7q0 -4 0.5 -7.5t0.5 -7.5q0 -53 -23 -92q-16 -26 -49 -35h1q-18 -7 -34 6q-14 12 -11 28q2 9 4.5 17.5t5.5 16.5q9 17 21 34.5t26 32.5l17 18zM115 -13q-8 -11 -15 -24t-7 -30q5 0 9 -0.5t8 0.5q5 3 11.5 7.5t10.5 9.5q34 34 31 93
q-8 -5 -17.5 -15.5t-25.5 -32.5zM-51 22q-6 -8 -11.5 -15t-7.5 -17h5l2 -1h1q35 13 54.5 39.5t29.5 61.5l-1 1q-1 0 -1 1l-3.5 -3.5t-3.5 -2.5q-16 -14 -33 -30.5t-31 -33.5z" />
    <glyph glyph-name="t_t" unicode="tt" horiz-adv-x="247" 
d="M83 368q5 0 8 -0.5t6 -0.5q24 2 49.5 2t49.5 2q36 4 75 -3q11 -3 20 -9q13 -8 7 -22q-3 1 -5 0.5t-3 1.5q-9 7 -18 9t-19 2q-14 0 -27.5 -0.5t-27.5 -1.5l-32 -2l-94 -5q-28 -8 -53 -9t-50 -3q-16 -2 -32 -5t-33 -6l-10 9q3 3 5 5.5t4 4.5q12 7 21 8q17 4 34.5 6.5
t34.5 5.5q6 1 13.5 2t17.5 2.5t24.5 3t34.5 3.5zM187 329q-4 -5 -7.5 -9.5t-5.5 -9.5q-28 -45 -54.5 -89.5t-53.5 -89.5q-8 -13 -16.5 -25.5t-19.5 -22.5q-11 -3 -14.5 -2.5t-12.5 5.5q-12 19 -10 44q2 72 16.5 138.5t37.5 132.5q8 20 15 40t15 40q2 3 4.5 6t4.5 7
q4 -2 10 -3.5t9 -3.5q0 -10 -3.5 -18.5t-5.5 -16.5q-9 -26 -18.5 -52.5t-17.5 -53.5q-14 -45 -24 -90.5t-15 -93.5q-3 -22 -2 -41q-1 -4 1.5 -6t2.5 -8q4 2 2.5 1t0.5 1l21 30q49 77 94 155t88 159q3 6 5.5 13t5.5 13q2 4 5 7t9 3q2 -2 5 -4.5t5 -4.5q2 -5 1 -7
q-9 -30 -18.5 -60t-19.5 -59q-22 -62 -38 -124.5t-24 -128.5q-2 -14 -1.5 -28.5t-0.5 -28.5q-2 -27 -0.5 -54t3.5 -54q1 -6 1.5 -12t0.5 -12q2 -11 6 -20t15 -16q1 -2 3 -8q-2 -2 -4 -3l-4 -2q-14 2 -22 10t-13 21q-3 11 -5.5 22.5t-3.5 23.5q-4 32 -4 63t1 63
q1 63 14.5 122t30.5 118q2 6 4 11.5t0 12.5q2 2 3 2q0 -1 -2 -3z" />
    <glyph glyph-name="y_y" unicode="yy" horiz-adv-x="540" 
d="M309 105q-8 2 -14 5t-9 9q-4 8 -6.5 17t-0.5 18q0 5 1 9t2 9q-4 2 -6 0.5t-4 -3.5l-59 -59t-59 -60q-12 -12 -16 -28q-9 -27 -18 -53.5t-20 -52.5q-8 -23 -18 -45t-23 -42q-5 -8 -10.5 -16t-11.5 -16q-12 -13 -26.5 -19.5t-33.5 -2.5q-3 2 -11 8q-2 2 -3.5 4.5t-3.5 4.5
q-5 15 -2.5 28t8.5 24q5 13 11.5 25t14.5 24q18 29 39.5 56t45.5 52q7 7 13.5 14t13.5 14q13 12 18 30q9 35 18 70.5t14 71.5q0 2 -2 2q-3 2 -5 0.5t-4 -3.5q-9 -9 -17.5 -18t-17.5 -17q-11 -9 -21 -18.5t-21 -17.5q-8 -7 -15.5 -12t-17.5 -8q-14 -5 -21 -2.5t-17 14.5
q-1 1 -3 5q-3 23 4 46q3 10 6 20.5t6 21.5q2 5 4 8.5t4 7.5q13 6 18 -7q-5 -14 -9.5 -28.5t-8.5 -29.5q-3 -14 -3 -30q-1 -2 3 -8q11 2 19.5 7.5t16.5 12.5q18 14 34.5 30.5t32.5 34.5q5 6 11 12l12 12q5 4 9.5 7.5t11.5 4.5q11 -1 14.5 -7.5t5.5 -14.5q1 -5 0.5 -9.5
t-1.5 -9.5q-5 -28 -10 -55.5t-12 -55.5q-1 -1 -1 -6q5 0 7 2q22 21 45 45q17 18 35 36.5t35 36.5q3 3 7 5q9 1 11.5 0t9.5 -6q2 -4 2 -5q-1 -8 -1 -14.5t-2 -13.5q-5 -21 -2 -40q6 -2 10 1t6 6q6 7 11.5 14t10.5 15q8 9 14.5 18.5t14.5 19.5h15q2 -2 3 -2.5t2 -1.5
q6 -8 6 -17t-2 -18q-5 -24 -8.5 -48t-8.5 -50q2 1 4 0.5t4 1.5q17 13 28.5 21.5t21 17t21 17t28.5 21.5q17 12 37 25q5 4 10 6.5t10 4.5q16 -1 16 -17q-16 -9 -25 -15t-16.5 -12t-15.5 -12.5t-23 -17.5q-29 -22 -56.5 -43.5t-52.5 -45.5q-8 -23 -14 -45t-13 -44
q-25 -76 -70 -137q-11 -15 -25 -28q-13 -12 -28 -17.5t-33 -0.5q-12 6 -17 16t-7 21q2 23 11.5 43t20.5 39q29 45 63 82.5t73 72.5q3 2 9 8q9 29 14.5 58.5t12.5 61.5q-8 -5 -11.5 -10.5t-7.5 -9.5l-9 -9t-8 -9q-5 -5 -10.5 -7.5t-11.5 -4.5zM321 -22q-4 0 -5 -1
q-32 -30 -59.5 -64t-50.5 -73q-5 -8 -8 -17t-7 -18q-5 -16 0 -30q3 0 6 -0.5t5 0.5q5 3 10.5 6t10.5 8q8 7 14.5 15t12.5 16q24 34 41 71t30 77q1 2 0.5 5t-0.5 5q2 1 3.5 1.5t-1.5 3.5q0 -1 -2 -5zM95 -20l-3 3q-2 -2 -3.5 -3t-2.5 -3q-23 -25 -43.5 -51.5t-37.5 -55.5
q-7 -11 -12.5 -23t-10.5 -24q-3 -6 -3.5 -12.5t4.5 -14.5q3 1 6.5 1t6.5 1q15 8 24 22q5 7 10 14.5t9 15.5q13 23 23.5 46.5t20.5 47.5q4 9 6.5 18t5.5 18z" />
    <glyph glyph-name="a_b" unicode="ab" horiz-adv-x="458" 
d="M84 178q-6 -2 -8.5 -6.5t-6.5 -8.5l-24 -26t-25 -27q-2 -3 -5.5 -5.5t-6.5 -4.5q-8 -7 -16 -4q-3 1 -6 2.5t-5 3.5q-6 22 0 42q8 23 18.5 43.5t26.5 38.5q14 17 35 26q15 7 31 -3q6 -4 12 -8.5t12 -9.5q3 -8 1.5 -16.5t-3.5 -16.5q-3 -13 -5.5 -25.5t-4.5 -25.5
q-2 -14 7 -23q11 2 20.5 7.5t17.5 13.5q15 16 30.5 32t30.5 32q5 6 10.5 12.5t10.5 13.5q8 32 16 63.5t19 63.5q24 68 60 133q16 29 38 52t53 39h22l13 -13q4 -17 1 -31t-10 -27q-11 -22 -23 -44t-24 -43q-15 -24 -30.5 -48t-30.5 -47q-17 -26 -35 -48.5t-38 -45.5
q-1 -2 -5 -8q-8 -30 -13 -61t-10 -65q5 5 8.5 8t5.5 7q19 26 40 49.5t43 46.5q6 7 13.5 13t15.5 12t17 9t20 -1q1 -1 2.5 -2t2.5 -3q2 -2 3.5 -4t2.5 -4q3 -14 -2 -28q-8 -23 -22 -40.5t-37 -28.5q-25 -13 -48 -20q-6 -2 -13 -2.5t-14 -1.5q-14 -15 -25 -33t-22 -35h-15
q-5 5 -5 8.5v8.5q0 18 3 35.5t6 35.5q2 11 3.5 22.5t3.5 23.5q1 1 -1 5q-4 1 -8 -5q-6 -6 -11.5 -13t-12.5 -13q-10 -9 -19 -18t-20 -17q-9 -8 -20 -12t-24 0q-24 11 -22 40q1 8 1 15v15l2 2zM428 563q-2 -1 -4 -1t-4 -2q-39 -25 -62 -61q-29 -48 -50 -98t-36 -104
q0 -1 2 -9q4 5 7.5 8.5t6.5 7.5q22 29 41.5 59.5t38.5 62.5q22 37 44 79q6 11 10 23.5t9 24.5q2 7 -3 10zM0 122q13 11 27.5 26t27 30.5t21.5 29.5t12 23q-2 1 -3.5 2t-3.5 1q-7 0 -13 -3q-8 -3 -14.5 -9t-12.5 -13q-13 -16 -22 -33t-17 -36q-1 -3 -1 -7t-1 -11zM384 227
q-1 0 -1 0.5t-1 0.5q-7 1 -10.5 -3t-8.5 -7q-19 -17 -35.5 -35.5t-23.5 -30.5q38 14 55 30.5t25 44.5z" />
    <glyph glyph-name="a_h" unicode="ah" horiz-adv-x="410" 
d="M89 250q5 -4 8.5 -7t6.5 -6q5 1 8.5 1.5t8.5 1.5q2 -3 3.5 -6t3.5 -5q0 -9 -4 -21t-8.5 -24.5t-7.5 -24.5t-2 -21q6 -5 10 1q11 11 21 22t20 23q23 28 48.5 67t47.5 68q20 26 36.5 53.5t30.5 56.5q4 9 8 17.5t8 16.5q7 6 18 1q2 -2 3.5 -4.5t3.5 -6.5q-3 -7 -5.5 -14
t-4.5 -14q-15 -36 -30.5 -72t-29.5 -73q-5 -15 -8.5 -23.5t-6.5 -16t-6 -16.5t-7 -24q-1 -2 -4 -15t-3 -17q9 7 18 19.5t18 25.5t18.5 25t19.5 19q10 -2 16 -2q15 -11 15 -30q-4 -48 -16 -95t-15 -93q-1 -17 -2 -33t-3 -32q-12 -6 -16.5 -5t-15.5 15q-1 5 -1 9t-1 9
q-1 36 8.5 73t13.5 72q1 13 3.5 25t4.5 24q1 4 1.5 7.5t-3.5 8.5q-11 -9 -18.5 -20.5t-18.5 -20.5q-10 -10 -17.5 -21.5t-21.5 -16.5q-2 1 -5 1.5t-5 1.5q-2 2 -4.5 3.5t-4.5 3.5q-2 10 -1 19.5t3 18.5q5 18 8.5 29.5t7 22t8 21.5t10.5 28q1 2 1 4t1 6q-10 -8 -15 -15
q-10 -12 -21.5 -28t-22.5 -32.5t-22.5 -32t-21.5 -27.5q-7 -9 -14.5 -17t-15.5 -16q-5 -5 -11 -9t-13 -5q-8 1 -12 4.5t-8 8.5q0 3 0.5 10t1.5 14.5t1.5 14.5t0.5 11q-7 -3 -10.5 -8.5t-8.5 -10.5q-10 -11 -19.5 -21.5t-19.5 -21.5q-4 -4 -8.5 -7t-9.5 -6q-9 -8 -21 -5
q-7 2 -15 14q-3 18 3 39q8 25 20 48t32 41q7 7 13 11t12 5.5t13.5 1.5t18.5 -1zM84 229q-5 -1 -9.5 -0.5t-7.5 -1.5q-18 -9 -30 -24q-28 -36 -38 -76q-2 -3 -2 -7t7 -7q26 18 44.5 43t38.5 50q-1 5 -1.5 10t-1.5 13z" />
    <glyph glyph-name="a_l" unicode="al" horiz-adv-x="289" 
d="M240 -83q-12 -9 -20 -3q-20 11 -26 35q-6 17 -7.5 34.5t-1.5 34.5q0 16 1.5 31t2.5 31q0 17 2 34l4 34q1 2 0.5 4t-0.5 4q-5 1 -7.5 -2.5t-4.5 -5.5q-8 -9 -15.5 -18.5t-15.5 -18.5q-7 -8 -16 -11.5t-21 0.5q-1 1 -3 1.5t-4 2.5t-3.5 4t-3.5 4q-6 21 -3.5 41t6.5 40
q-3 4 -4 2t-1 -3q-9 -11 -17.5 -22t-17.5 -22q-9 -12 -20 -23t-26 -19q-14 -5 -26 0q-17 14 -12 36q4 24 17 45q21 39 60 63q10 6 25 9t28.5 -1.5t24.5 -19.5v-8t-1 -9q-3 -16 -6.5 -31t-6.5 -30q-2 -11 -2 -20.5t2 -19.5q5 -2 8 -0.5t5 3.5q10 9 21 21q11 14 21 27.5
t21 27.5q8 11 11 27q8 56 28.5 106.5t48.5 98.5q15 31 42 55q9 9 22 15q13 5 24 -2.5t12 -21.5v-13t-2 -12q-3 -10 -6 -19.5t-8 -17.5q-18 -35 -38.5 -67.5t-43.5 -64.5l-45 -60q-9 -10 -10 -21q-12 -68 -18 -135q-2 -21 -2.5 -42t0.5 -43q1 -12 2.5 -20t4.5 -14.5
t7.5 -13.5t13.5 -17zM254 282q5 -1 6 2t3 5q23 34 44.5 68.5t40.5 71.5q5 9 7.5 19.5t6.5 20.5q1 2 0 4t-1 4q-14 -8 -22 -17t-18 -23q-22 -33 -38 -69t-28 -74q-2 -7 0 -13q-1 -1 -3 -1t0 -2q2 2 2 4zM0 125q5 2 8 1.5t5 1.5q5 5 10.5 10t10.5 10q20 20 35.5 41.5
t31.5 44.5q1 1 -1 5q-9 1 -16.5 -2.5t-15.5 -8.5q-11 -7 -20 -16t-17 -20q-11 -14 -19.5 -29.5t-11.5 -37.5z" />
    <glyph glyph-name="a_r" unicode="ar" horiz-adv-x="320" 
d="M87 257q12 -9 16 -21t2 -26q-2 -12 -5 -24t-8 -23q-4 -10 -6.5 -19.5t-5.5 -18.5q3 -5 5.5 -4.5t4.5 2.5q11 9 21.5 18t19.5 20q12 14 25 27t26 27q1 6 -2.5 10.5t-5.5 9.5t-2.5 9.5t-2.5 8.5q2 30 13.5 55.5t28.5 48.5q19 25 46 31q18 -1 26 -10t10 -26
q-4 -19 -12.5 -36t-19.5 -33q-14 -22 -32 -44l-4 -6l-4 -6q3 -2 5 -3.5t4 -3.5q19 -11 26 -24.5t3 -34.5l-6 -28t-7 -28q-7 -23 -13 -46.5t-8 -47.5q-2 -20 -2 -41v-42q0 -7 3 -12.5t5 -9.5q3 -5 7.5 -7l9 -4t8 -5t4.5 -9l-4 -4l-4 -4q-20 2 -32 12t-18 27q-3 9 -5 18.5
t-2 19.5q-2 43 2.5 84.5t18.5 83.5q9 25 15 53q2 5 2 9v8q-5 11 -14 13t-17 6q-7 -8 -13.5 -15t-13.5 -14l-57 -60q-16 -17 -39 -24q-5 3 -12 5q-10 11 -9.5 22.5t4.5 22.5q-4 3 -5.5 1t-3.5 -4l-39 -39q-8 -10 -16 -15q-7 -5 -13 -4q-4 0 -7 1.5l-7 3.5q-7 16 0 34
q9 26 21 52t29 49q5 6 10 11.5t10 10.5q10 8 21 12t25 0zM269 362q-2 0 -4 0.5t-4 0.5q-14 -4 -24 -18q-28 -34 -40 -77q-2 -8 -2 -15t3 -17q30 32 49 65q8 14 15 28.5t7 32.5zM74 236q-12 -7 -22 -17t-18 -22q-11 -17 -19.5 -34.5t-16.5 -36.5l2 -6q23 22 44 45.5t40 47.5
q1 7 -0.5 13t-9.5 10z" />
    <glyph glyph-name="a_t" unicode="at" horiz-adv-x="313" 
d="M290 325q27 -1 51 0.5t49 -2.5q2 -3 5.5 -6t6.5 -7q5 -6 -4 -18q-6 -1 -10.5 2.5t-9.5 5.5q-26 3 -51 -1t-51 -4q-5 -5 -6.5 -11t-2.5 -13q-10 -48 -18 -101q-5 -25 -8.5 -49t-6.5 -50q-2 -18 -3.5 -36t-3.5 -35t-4.5 -34t-0.5 -34q0 -3 0.5 -6.5t-0.5 -5.5q0 -3 -4 -7
q-8 2 -10 4t-8 10q-2 17 -1.5 34.5t2.5 34.5q2 19 4.5 37.5t4.5 36.5q3 30 6.5 59t9.5 58q2 9 3 19t3 20q0 2 -0.5 4.5t-0.5 5.5q-6 -3 -9 -8.5t-7 -10.5q-5 -5 -8.5 -10t-7.5 -10q-15 -19 -31.5 -36t-35.5 -31q-8 -6 -17 -11q-4 -2 -8.5 -3.5l-7.5 -2.5q-14 2 -18.5 11.5
t-6.5 20.5q1 7 2 13l2 12q1 7 2 13.5t3 15.5q-10 -11 -17 -21t-15 -19q-12 -16 -28 -32q-13 -14 -30 -19q-15 3 -19 17q2 10 4 15q8 29 24 53t36 45q18 18 44 22q7 -2 15 -4.5t16 -5.5q5 -8 4 -16t-3 -16q-2 -11 -5 -22l-6 -22q-6 -18 -3 -39q8 5 14 9.5t11 9.5q35 29 66 68
q11 14 21 27t20 27q2 4 6 10q-3 5 -6.5 4.5t-6.5 -0.5h-85q-16 0 -27 7q-7 3 -5 14q11 5 23.5 2.5t24.5 -0.5q11 2 23 3t23 2q13 1 25 1.5t26 5.5q5 14 9 29t9 30q6 21 12.5 41t16.5 40q4 7 8 14.5t9 14.5q5 9 13 15q7 7 15 4q4 -1 7 -3l6 -4q4 -16 0 -29t-10 -26
q-11 -26 -23 -52l-24 -52q-4 -7 -11 -22zM321 444q-5 -1 -5 -4v-7q-7 -2 -3 -10q1 4 1 6.5t1 4.5q5 2 5 5v6q3 2 4 4t-1 7q-1 -4 -1 -7t-1 -5zM6 146q5 0 11 8q17 17 31 36t28 39l-1 2q-3 2 -4 1q-9 -6 -18.5 -15.5t-18.5 -21t-16 -24t-11 -23.5v-2q-2 -2 -3 -2z" />
    <glyph glyph-name="i_h" unicode="ih" horiz-adv-x="373" 
d="M252 421q-4 -5 -7.5 -9.5t-7.5 -9.5q-14 -21 -31 -49.5t-34.5 -58.5t-34.5 -58.5t-31 -49.5q-13 -19 -27 -37t-28 -35q-7 -9 -12 -14t-9.5 -8.5t-10.5 -6.5t-14 -6q-5 2 -13.5 4t-11.5 9q-2 6 -2 13.5t2 14.5q6 28 13 55t18 54q4 13 11.5 18.5t13.5 4.5t8.5 -8t-3.5 -19
q-5 -9 -6 -18q-6 -23 -12 -45.5t-12 -45.5v-5q5 -1 8 2.5t5 6.5l24 28t23 30q22 31 46 69.5t48 79t47 79.5t43 72q11 17 20.5 34t19.5 34q6 10 12 18q13 2 16 0t10 -15q-6 -29 -16 -57.5t-21 -56.5q-7 -18 -16.5 -44t-19 -53t-18.5 -53t-15 -45q-4 -12 -7.5 -24t-6.5 -24
q0 -2 -3 -11t-6.5 -20t-6.5 -20t-3 -11q-2 -1 -3.5 -1t1.5 -3q0 2 0.5 2.5t0.5 1.5q4 -1 5.5 1t3.5 4q4 4 14 22t20.5 39t20 39t13.5 22q11 14 28 17q14 0 23 -11q10 -11 10 -28q0 -22 -10 -48.5t-13 -48.5q-6 -38 -16 -77t-6 -81q-2 -1 -2.5 -2.5t-1.5 -1.5h-15
q-13 12 -13 28q-2 26 3 51t12.5 49.5t14.5 49t8 50.5q0 5 -0.5 10t-0.5 12q-13 -12 -26.5 -31.5t-27 -40.5t-26.5 -40.5t-24 -30.5q-4 0 -7 -0.5t-5 -0.5q-20 3 -20 19t4 28q8 28 18.5 64t22.5 73.5t24.5 73.5t23.5 64q2 5 3 9t0 9q2 2 3 2t-2 -3zM73 350q4 -2 6 -2t3 -2
q3 -3 3 -7q-1 -5 -5 -13l-12 -18t-12 -17q-8 -5 -13 1q-6 4 -2 12q0 3 2 5q8 10 15 20t15 21z" />
    <glyph glyph-name="i_l" unicode="il" horiz-adv-x="323" 
d="M20 78q3 1 6 1t5 2q8 4 14.5 8t13.5 9q31 25 59 52.5t54 56.5q11 11 20 23t19 23q10 12 15 29q15 68 45 133q21 48 57 87q14 15 27 23.5t33 15.5q7 -1 13.5 -4t10.5 -11q3 -11 1.5 -20.5t-6.5 -19.5q-4 -8 -8 -15.5t-9 -15.5q-17 -23 -34 -47t-34 -47q-8 -11 -17 -22.5
t-18 -22.5q-11 -14 -16 -32q-11 -40 -20 -80t-15 -81l-10 -54l-10 -54q-2 -13 -3 -25t-3 -24q-3 -27 5 -49q-14 -8 -23 0q-5 5 -8 11t-3 14q-1 6 -1 12v13q0 28 3 56t8 56q4 22 6.5 43.5t6.5 43.5q2 14 4.5 27t4.5 27q-8 -4 -12 -9t-9 -10q-52 -63 -118 -116
q-16 -13 -24.5 -17t-26.5 -9q-24 7 -30 33q-5 15 -5 30t2 30q4 19 8.5 37.5t11.5 36.5q10 25 24 43q3 4 6.5 7t6.5 6q9 -2 14.5 -3t10.5 -8q0 -2 -1 -3q-20 -26 -31.5 -56t-18.5 -62q-2 -11 -3 -21.5t-1 -21.5q1 -8 -0.5 -14.5t3.5 -14.5zM380 498q-5 2 -8 -1t-5 -6
q-40 -46 -61 -103q-1 -2 -2 -4.5t3 -5.5q5 7 10 13t10 13q11 17 21.5 33.5t21.5 33.5q5 6 8.5 12.5t1.5 14.5q2 1 3.5 1.5t-1.5 2.5zM66 343q-16 4 -13 20q7 11 17 18t19 15q17 5 22 -7v-5q-9 -10 -18 -19l-18 -18q-2 -2 -4.5 -2.5t-4.5 -1.5z" />
    <glyph glyph-name="i_t" unicode="it" horiz-adv-x="267" 
d="M51 264q-6 -1 -11 10q4 10 9 19t13 16q8 8 16.5 14.5t19.5 8.5q4 -2 8.5 -7t3.5 -10q-5 -8 -14 -12.5t-16 -12.5q-7 -7 -14 -13t-15 -13zM3 88q4 2 7.5 3.5t5.5 3.5q9 8 18 17l18 18q12 13 30.5 40t37 58t35.5 59t28 43q2 2 2.5 4.5t2.5 6.5q-14 2 -27 0.5t-27 -3.5
q-8 2 -15 4.5t-9 14.5q4 2 7.5 3.5t7.5 2.5q23 5 46 9.5t47 9.5q8 12 16 24.5t16 25.5t14 26.5t15 26.5q3 0 6 0.5t5 -0.5q7 -2 10.5 -7.5t1.5 -10.5t-3.5 -9t-3.5 -9q-7 -15 -12.5 -30t-10.5 -32q6 -4 7 -4q5 -1 11 -1.5t11 -0.5q15 0 30 -2.5t29 -5.5q8 -7 9 -9.5
t-1 -13.5q-4 0 -7.5 -1t-7.5 -1h-72h-20q-2 -5 -3.5 -8t-3.5 -8q-33 -125 -70 -250.5t-60 -248.5q-2 -10 -3 -20t-5 -19q-9 -7 -19 0q-4 7 -3 14t3 15q5 32 10.5 63.5t10.5 63.5q8 50 19.5 95.5t25 90.5t27.5 91t28 96q1 4 1 13q-8 -5 -11.5 -12t-8.5 -12q-11 -15 -29 -43.5
t-37.5 -60t-38 -59.5t-31.5 -41q-15 -17 -30 -29q-9 -8 -21 -12q-10 -3 -19 1.5t-13 13.5q-3 8 -4.5 16t0.5 16q7 31 18 59.5t26 56.5q1 2 2.5 2.5t3.5 2.5l7.5 -2.5t6.5 -5.5q0 -7 -2 -10q-10 -22 -18.5 -44.5t-15.5 -45.5q-3 -9 -4 -18.5t3 -20.5z" />
    <glyph glyph-name="e_l" unicode="el" horiz-adv-x="306" 
d="M234 -109q-4 -10 -14 -8q-18 0 -28 13q-9 11 -14 25q-4 12 -5 24.5t-2 25.5q-1 17 0 34t1 34q1 11 1.5 22t2.5 22l4 36l4 36q0 2 -0.5 3t-0.5 4q-7 -5 -13 -10l-12 -10q-22 -17 -44 -32.5t-47 -27.5q-8 -4 -16.5 -7t-17.5 -6q-18 -5 -34.5 5.5t-18.5 34.5q-2 14 1 27.5
t8 26.5q25 68 82 121q5 5 11 9t13 7q20 10 32 -2t13 -26q1 -11 -2.5 -19.5t-9.5 -16.5q-10 -13 -22 -23.5t-26 -20.5q-12 -10 -26 -17.5t-28 -14.5q-3 -2 -5.5 -3t-5.5 -3q-5 -11 -8 -22.5t-2 -24.5q0 -22 22 -16q15 5 29 12t28 15q26 16 50.5 34t48.5 38q7 5 9 16
q8 41 19.5 79.5t25.5 76.5q13 33 29 64t36 60q30 41 70 61q16 7 29 7q26 -1 34 -26q3 -10 2 -19.5t-3 -18.5q-8 -27 -21 -51q-17 -29 -36 -57t-39 -55q-24 -31 -49 -60t-52 -57q-8 -6 -9 -16q-4 -17 -7.5 -34t-5.5 -34q-4 -21 -6.5 -42t-4.5 -42q-2 -26 -3 -53t3 -53
q0 -4 1 -8l2 -8q3 -12 14 -16q5 -2 8 -4.5t5 -8.5zM242 247q4 4 4 3q5 5 10 11t10 11q26 29 49.5 59.5t45.5 63.5q14 20 26 42t21 45q4 11 5.5 22.5t-1.5 23.5q-8 2 -14 -0.5t-11 -5.5q-23 -14 -39 -33q-23 -28 -40 -61q-21 -40 -36 -82t-27 -86q-2 -8 -3 -13zM114 281
q-4 -2 -6.5 -3t-4.5 -3l-9 -6q-36 -32 -59 -72q-1 -2 -1 -3.5t-2 -4.5q22 12 39 27t32 32q5 6 9 14t2 19z" />
    <glyph glyph-name="e_t" unicode="et" horiz-adv-x="333" 
d="M-21 132q2 8 4 14.5t4 12.5q16 52 54 91q10 11 26 21q8 6 18 8.5t21 -1.5q7 -4 10.5 -10t5.5 -14q-1 -20 -17 -37q-18 -21 -37.5 -40.5t-42.5 -36.5q-4 -2 -6.5 -4.5l-5.5 -5.5q-9 -9 -2 -21q2 0 5 -0.5t5 0.5q15 7 28 16t25 19q16 12 34 30q28 28 55 57t50 61
q6 8 12.5 14.5t11.5 13.5l10 14t10 13q-2 5 -4.5 5.5t-5.5 0.5q-25 1 -49.5 2t-49.5 3q-7 0 -14 2l-14 4q-11 3 -12 18l4 4t5 3q6 1 12.5 1.5t12.5 -1.5q14 -4 26.5 -4t25.5 1q19 2 38 2t39 1q4 0 8 0.5t9 0.5q11 12 20 25.5t19 27.5q8 12 15.5 24.5t15.5 24.5q3 4 6.5 7
t5.5 5q14 -3 20 -13q3 -10 -2 -19q-5 -12 -10.5 -24.5t-11.5 -24.5q-3 -7 -6.5 -14t-5.5 -15q6 -3 9 -3h25t25 1q27 3 55.5 2.5t56.5 -4.5q12 -2 18 -9q4 -6 6 -13q-5 -10 -13 -11.5t-16 2.5q-11 4 -20 4.5t-19 0.5q-19 -1 -38 -1t-39 -1q-17 -1 -32.5 -2.5t-32.5 -3.5
q-8 -12 -11.5 -25t-8.5 -27q-11 -34 -19 -68.5t-16 -69.5q-6 -26 -12.5 -52.5t-12.5 -52.5q-14 -59 -26 -117t-26 -117q-3 -14 -7 -28t-6 -27q-8 -10 -19 -3q-8 5 -8 14q0 5 0.5 9.5t1.5 9.5q8 37 15 74t15 74q13 60 25.5 120t26.5 120q9 38 18.5 76t20.5 76q-3 2 -4 -0.5
t-3 -4.5l-99 -123q-23 -27 -47.5 -51.5t-52.5 -46.5q-10 -8 -20.5 -14.5t-21.5 -13.5q-6 -4 -18 -7q-14 -2 -26 6t-15 22q-2 5 -2.5 11t-1.5 12zM32 180q8 2 12.5 7.5t9.5 10.5l16.5 16.5t10 12t6 11t5.5 13.5q-7 -1 -11.5 -4.5t-8.5 -7.5q-13 -11 -23 -26
q-5 -7 -10.5 -14.5t-6.5 -18.5z" />
    <glyph glyph-name="o_h" unicode="oh" horiz-adv-x="475" 
d="M315 354q-2 -2 -5 -3.5t-5 -3.5l-22 -26l-22 -26q-13 -14 -25.5 -28t-25.5 -28q-31 -31 -68 -51q-8 -18 -13.5 -29.5t-11 -20.5t-13 -18t-18.5 -23q-22 -24 -38.5 -26.5t-28 8.5t-17.5 32t-5 45.5t8 49t22 41.5q6 11 18.5 19t20.5 18q2 3 5.5 5.5t5.5 4.5q6 5 13 7t16 -1
q10 10 20 18t30 1q3 -4 6.5 -8.5t6.5 -9.5q-1 -6 -0.5 -12.5t-0.5 -11.5l-3 -24q-1 -6 -3 -11.5t-2 -13.5q7 5 12.5 9.5t10.5 9.5q16 15 30.5 30.5t28.5 31.5q15 17 29.5 35t28.5 36q22 26 39.5 54.5t29.5 60.5q7 17 15.5 33.5t17.5 32.5q11 21 26 35q18 4 26 -11
q1 -15 -7 -28q-9 -16 -18 -31.5t-19 -31.5q-5 -9 -11 -17.5t-11 -16.5q-3 -6 -6 -11.5t-5 -11.5q-9 -24 -15 -40.5t-10.5 -31.5t-9 -32t-10.5 -42q-3 -9 -6.5 -24t-7 -31t-7 -31t-5.5 -25q0 -5 1 -7q4 -2 5 0t3 4q5 6 12 18t13.5 25t13.5 25t12 19q5 6 10.5 10.5t14.5 6.5
q17 -2 27 -16q9 -22 6 -46q-17 -90 -24 -171t-7 -169q0 -5 -1 -9.5t-7 -6.5q-12 0 -22 14q-1 4 -2 9.5t-1 10.5q-2 25 -4.5 49t0.5 49q7 51 10 103.5t11 109.5q2 5 2 10.5t1 13.5q-27 -27 -46 -57t-39 -57q-11 -3 -17 1t-11 12q2 18 5.5 35t7.5 34q5 24 8.5 39.5t6.5 29.5
t7.5 29t11.5 39q2 4 2.5 8.5t-2.5 9.5q6 0 3 4q-2 -4 -2 -5zM63 108q16 17 24.5 27t17.5 29q2 4 3.5 8t3.5 9q-4 2 -7 2.5t-5 1.5q-12 5 -20 17.5t-5 24.5q2 8 3.5 16t4.5 16q3 5 -1 6q-4 -2 -4 -3q-2 -2 -3.5 -4t-3.5 -3q-8 -6 -15.5 -22.5t-13.5 -37t-9.5 -41.5
t-1.5 -35.5t9.5 -19t22.5 8.5zM122 206q8 19 14 37.5t8 38.5q1 2 0.5 5.5t-6.5 6.5q-9 -7 -15 -16.5t-11 -19.5q-6 -11 -10.5 -23t-2.5 -27q2 -2 4.5 -3.5t4.5 -3.5q4 2 7 2.5t7 2.5z" />
    <glyph glyph-name="o_k" unicode="ok" horiz-adv-x="362" 
d="M256 314q-6 -1 -8.5 -5t-5.5 -7q-14 -15 -26 -31t-26 -30q-21 -21 -44.5 -38.5t-51.5 -30.5q-2 -1 -3.5 -1.5t-2.5 -1.5q-7 -15 -13 -28.5t-13 -27.5q-11 -20 -32 -38q-4 -4 -8.5 -6.5t-9.5 -5.5q-11 -5 -24.5 1t-14.5 21v24t4 23q5 19 12 38t16 36q1 4 4 8q2 4 4 9t6 7
q13 8 19.5 22t20.5 22q13 4 24 -3q12 -9 12 -23q1 -7 1 -13v-12q1 -6 0.5 -11t-0.5 -10q4 -3 6.5 -2.5t4.5 2.5q36 24 65 51q37 36 67.5 76.5t57.5 83.5q17 27 33 54t33 55q3 5 6 8.5t6 7.5q7 2 10.5 -1.5t5.5 -8.5q-4 -15 -9.5 -30t-12.5 -29q-24 -47 -49 -95
q-26 -47 -48 -94.5t-41 -97.5q-1 -2 -1 -4t-1 -4q4 -2 5.5 -0.5l3.5 3.5l24 22t25 22t25 18q12 8 26 3q9 -2 11 -11q4 -12 -3 -24t-22 -24q-24 -18 -50 -26q-2 -4 -4 -7.5t-3 -8.5l-4 -36t0 -36q2 -23 2.5 -45t4.5 -45q3 -17 4 -34.5t3 -34.5q1 -3 1 -11q0 -11 0.5 -17.5
t2 -12t4.5 -12t8 -15.5q-2 -14 -16 -18q-3 2 -6.5 3t-5.5 3q-7 8 -9.5 17t-4.5 17q-5 26 -9.5 53t-6.5 53q-6 67 0 135q0 5 1 8.5t2 7.5v21q-17 -18 -29 -36.5t-23 -38.5q-16 -6 -23 8l2 8t3 9q15 38 30 77t30 77q6 14 12.5 27.5t12.5 27.5q1 3 1 6.5t1 6.5q2 1 3.5 1.5
t-0.5 3.5q-1 -2 -1 -3t-1 -2zM283 188q30 6 41 31q-14 -5 -21.5 -11.5t-18.5 -20.5q-1 -1 -1.5 -1t-1.5 -1q1 1 1 1.5t1 1.5zM27 192q-8 -11 -16 -31t-13 -43q-2 -8 -3 -17t3 -18q13 4 20.5 12t14.5 18q8 12 15.5 25t8.5 29q-10 5 -17.5 10t-12.5 15zM66 189q11 29 6 58h-7
q-14 -22 -16 -48q2 -6 5.5 -9.5t11.5 -0.5z" />
    <glyph glyph-name="o_l" unicode="ol" horiz-adv-x="269" 
d="M187 -59q6 -5 15 -12q0 -2 -0.5 -3.5t-0.5 -4.5q-2 0 -3.5 -1t-3.5 -1q-23 3 -31 29q0 2 -1 5t-1 6q-2 23 -2.5 45.5t2.5 45.5q2 21 3.5 43t3.5 44q3 28 6 55.5t8 54.5q3 8 -3 14l-30 -24t-31 -24q-5 -11 -9.5 -22t-9.5 -22q-11 -23 -24 -43.5t-29 -40.5q-6 -7 -13 -13
t-15 -11q-26 -17 -39 15q-2 3 -2.5 6.5t-2.5 7.5q5 43 19 82.5t36 75.5q8 13 18.5 23t21.5 19q12 8 23.5 8.5t22.5 -10.5q7 -8 9 -17t5 -19q13 5 28 17.5t34 34.5q8 23 15 45t15 43q15 37 36 69q7 11 15.5 20.5t17.5 18.5q7 7 18 12q14 6 25 -1.5t12 -22.5q2 -10 -0.5 -19
t-6.5 -18q-11 -21 -23.5 -40.5t-28.5 -37.5q-29 -33 -62 -68q-2 -12 -5.5 -26t-5.5 -29q-12 -69 -21 -143q-2 -23 -3 -46t-4 -46q-2 -15 -2 -29.5t1 -28.5q0 -3 1 -7t2 -9zM243 360q2 2 5 4t5 4q16 18 30 37.5t25 40.5q4 8 7.5 16t6.5 16q1 2 0 3.5t-1 3.5h-3q-6 -2 -9 -6
q-24 -23 -39.5 -50.5t-26.5 -58.5q-1 -2 -0.5 -5t0.5 -6h-2q-1 0 -1 -2zM81 191q-7 5 -13 4l-12 -2q-7 0 -12 4t-13 0q-18 -37 -27 -80q-2 -6 -2.5 -12t-1.5 -12q0 -3 0.5 -6.5t4.5 -5.5q26 22 44.5 50t31.5 60zM93 226q5 13 7 24.5t-2 24.5h-7q-6 -4 -11 -7.5t-10 -6.5
q-2 -5 -2.5 -8t-1.5 -6q-5 -4 -8 -6t-5 -5t-3 -6.5l-3 -10.5q2 -2 2.5 -3.5t2.5 -3.5q11 0 21 4t20 10z" />
    <glyph glyph-name="o_t" unicode="ot" horiz-adv-x="281" 
d="M225 289q-3 -4 -7 -7t-8 -7q-40 -45 -92 -65q-9 -17 -17.5 -32.5t-19.5 -30.5q-7 -11 -14 -20t-15 -18q-17 -17 -41 -23q-3 1 -6.5 2.5t-6.5 2.5q-8 6 -11 13.5t-6 16.5q8 81 67 133q9 3 17.5 3.5t15.5 6.5q4 4 15 4q15 0 22 -15q1 -3 1 -5.5t1 -4.5q6 -2 7 -2
q30 16 54 38.5t42 50.5q2 2 2 5q-2 3 -4 3h-5q-14 -1 -27.5 -1.5t-27.5 -1.5q-23 0 -46.5 -0.5t-46.5 0.5q-6 0 -12 1.5t-11 2.5q-8 8 -5 14q2 0 3 1t3 1q20 3 40.5 4t40.5 2q30 2 59 4t61 4q2 3 5 6.5t5 7.5q7 15 13 30.5t12 31.5q2 5 4 11t10 8q7 -1 10 -4.5t6 -10.5
q-2 -20 -11.5 -37t-13.5 -37q6 -5 12 -4t11 1q54 -1 107.5 -0.5t107.5 0.5q9 0 18 -1t17 -4q7 -2 9.5 -4t10.5 -13q-2 -2 -2 -4t-2 -4q-2 -1 -3 -2t-3 0q-14 3 -29.5 3.5t-30.5 0.5h-71.5t-71.5 -1q-12 0 -24 -1l-24 -2h-21.5t-21.5 -1q-14 -38 -21 -73q-17 -66 -30.5 -133
t-24.5 -135q-5 -22 -8 -43t-7 -43q-1 -5 -2 -9t-2 -9q-1 -2 -3 -3t-4 -3q-6 4 -13 8q-3 8 -3 14t1 12q12 68 23 135t23 135q4 20 8.5 39.5t9.5 39.5q2 5 3 9t-1 9l2 1q1 0 1 2zM8 108q12 4 21 11.5t17 16.5q12 16 23 32t18 35q-5 4 -8.5 7t-8.5 5q-5 3 -5.5 8t-8.5 6
q-25 -23 -37.5 -51.5t-14.5 -63.5q1 -1 1.5 -2.5t2.5 -3.5zM99 242q-8 0 -9.5 -1.5t-2.5 -10.5h9z" />
    <glyph glyph-name="u_l" unicode="ul" horiz-adv-x="347" 
d="M212 106q-5 2 -7 0t-5 -4l-14 -12l-14 -12q-11 -11 -28 -14q-4 1 -10 3q-17 6 -20 23q-6 29 1 60q2 6 2.5 12t1.5 12l-2 2q-20 -20 -38 -42t-43 -39h-22q-8 8 -12.5 12t-10.5 18q2 38 9.5 72.5t23.5 65.5q7 3 14 2.5t11 -5.5v-6q-8 -20 -14 -41l-12 -42q-2 -5 -2 -10.5
t-2 -10.5q-1 -8 -1 -15v-14q8 -8 10 -3q5 4 9 7.5t9 8.5q22 23 42.5 47.5t38.5 50.5q5 6 9.5 11.5t8.5 10.5q13 4 21 -3q3 -7 2 -13t-3 -13q-6 -16 -11.5 -32t-10.5 -33l-9 -39q-1 -16 2 -34q6 -2 9 -1t6 3q20 14 36.5 31t32.5 35q2 28 6 54.5t11 52.5q25 106 91 184
q7 9 15.5 17t17.5 16q4 3 8.5 5.5t9.5 4.5q4 3 9.5 3.5t10.5 -0.5q8 -1 12 -4.5t9 -9.5q10 -28 0 -54q-8 -26 -20 -50t-26 -47q-26 -45 -56.5 -87t-63.5 -82l-4 -4t-5 -6q-2 -16 -4 -33l-4 -34l-6 -84q0 -13 -0.5 -26t1.5 -26q1 -8 3 -16t4 -15q-3 -7 -7 -6q-11 1 -12 9
q-6 11 -9 23.5t-4 24.5q1 29 1 58.5t4 58.5q1 6 0 12t0 12l1 1q2 2 1 2q-2 -2 -2 -3zM256 200q1 2 3 2.5t4 2.5q10 13 20.5 25.5t19.5 26.5q22 30 41.5 62t36.5 66q8 17 14.5 35t9.5 38q0 3 -1 6.5t-6 6.5q-1 -1 -3.5 -0.5t-4.5 -1.5q-6 -5 -12 -9t-11 -9q-16 -17 -30 -36
t-26 -40q-20 -38 -33.5 -79.5t-23.5 -84.5q0 -5 3 -11q-1 0 -1.5 -0.5t-1.5 -0.5v-2q0 1 2 3z" />
    <glyph glyph-name="u_t" unicode="ut" horiz-adv-x="377" 
d="M124 92q10 1 16.5 5t13.5 9q24 17 45 41q18 23 36.5 45t36.5 45q7 9 11.5 19t6.5 21q2 10 5 20t6 21q-4 1 -6.5 2t-4.5 0q-29 -3 -57.5 -7t-57.5 -7q-17 -2 -35 -3t-38 -3q-4 4 -6 7l2 8q6 5 13.5 7t14.5 4q42 8 83 14.5t83 14.5q5 1 10.5 2.5t11.5 3.5q3 6 6 12.5
t6 13.5q10 20 19 40t20 40q3 7 7 13t9 12q3 5 7 8.5t8 6.5q8 3 15.5 2t13.5 -10q7 -21 -2 -41l-27 -60q-4 -7 -7 -13.5t-6 -12.5q2 -7 10 -5q18 3 36.5 3t37.5 2l26 2t26 1q10 0 19 -1t19 -3q10 -1 19 -10q7 -7 0 -20q-28 5 -55.5 4t-55.5 -6h-14q-20 -2 -38.5 -4t-38.5 -4
q-4 0 -8 -1t-9 -3l-12 -18t-11 -19q-5 -7 -7.5 -14.5t-4.5 -15.5q-8 -37 -15.5 -73t-13.5 -73q-5 -33 -10 -66.5t-10 -66.5q-3 -27 -6 -53.5t0 -53.5q0 -1 -2 -3q-8 -6 -16 2q-10 12 -10 25q1 15 1.5 30t1.5 31q0 4 1 8t1 8q1 21 4 41.5t6 40.5q2 12 3.5 24.5t3.5 24.5
q2 17 5 34t5 34q1 7 1 13.5t1 13.5q-5 2 -6 -0.5t-3 -4.5q-11 -14 -21.5 -27t-21.5 -27q-14 -17 -29 -31.5t-33 -27.5q-7 -4 -11 -6.5t-8.5 -3.5t-10 -0.5t-14.5 1.5q-10 5 -12.5 13t-4.5 16q1 20 6 40t12 40q-3 -2 -5 -2t-3 -2q-16 -17 -30.5 -33.5t-31.5 -33.5
q-9 -10 -19 -19t-24 -13q-24 4 -24 29q0 10 1 19.5t4 18.5q7 22 15.5 42.5t21.5 40.5q2 2 4 5t5 5q6 6 15 5q11 -3 10 -15q-3 -3 -7 -5.5t-6 -6.5q-4 -5 -7 -11t-5 -11q-8 -17 -14.5 -34t-11.5 -36q-2 -5 -2.5 -9.5t3.5 -9.5q18 15 34 32l32 34t31 35t30 35q3 1 5 1.5t4 0.5
q16 -2 16 -16q-1 -5 -2 -10.5t-3 -10.5q-5 -16 -11 -31t-11 -31q-4 -11 -6.5 -21.5t-1.5 -21.5q0 -3 0.5 -5.5t1.5 -5.5zM371 405q5 1 5 4t1 7q5 1 5 11q7 2 2 10q0 -4 -0.5 -6.5t-0.5 -4.5q-5 -1 -5 -4.5t-1 -6.5q-5 -2 -4.5 -5t-0.5 -6q-5 -3 -3 -9q2 8 2 10z" />
    <glyph glyph-name="u_h" unicode="uh" horiz-adv-x="422" 
d="M344 -35q-8 -2 -12 -0.5t-7 6.5q-10 17 -8 37q2 11 3.5 21.5t3.5 21.5q7 34 13 67.5t13 66.5q1 7 2 13t-1 14q-2 0 -4 0.5t-4 -0.5q-18 -8 -29 -18.5t-20 -22.5t-18.5 -24t-22.5 -24q-2 -2 -5 -3.5t-5 -3.5q-12 -1 -17 8q-4 13 -0.5 25t4.5 26q-8 -4 -13 -9.5t-10 -10.5
q-6 -5 -11 -10.5t-11 -10.5t-12 -9t-13 -9h-24q-14 7 -16 24q0 18 3 36q2 9 4 17.5t5 19.5q-7 -3 -8 -4q-8 -8 -16 -17t-16 -17q-11 -11 -21.5 -22t-21.5 -22q-11 -13 -30 -19q-17 1 -25 18q-2 32 9 69t30 63q11 2 17 -0.5t11 -13.5q-15 -15 -21.5 -34t-11.5 -39
q-2 -9 -5.5 -14t0.5 -15q5 -4 9 2q11 11 19 19.5t19 19.5l69 72q2 2 3.5 2.5t3.5 2.5h14q3 -4 7 -10v-7q-5 -19 -10.5 -38t-11.5 -38q-5 -19 -2 -35q4 -3 7 -1.5t6 3.5q10 7 18.5 14.5t16.5 16.5q9 10 17.5 19.5t17.5 19.5q12 12 17 33q22 102 70 194q11 21 24 40t30 36
q3 2 5.5 4.5t5.5 4.5q24 23 53 13q21 -17 12 -42q-5 -14 -10.5 -28t-12.5 -27q-20 -39 -45 -74.5t-53 -69.5q-13 -16 -26 -31.5t-26 -32.5q-3 -4 -6 -9t-4 -10q-3 -11 -4 -21.5t-3 -21.5q0 -1 2 -7q14 9 24.5 22.5t21 26.5t23 22t31.5 9q2 -1 3.5 -1.5t3.5 -2.5q3 -1 5.5 -3
t4.5 -4q8 -19 5 -36q-4 -21 -8 -43t-10 -43q-6 -24 -9.5 -48.5t-8.5 -48.5q-2 -19 2 -33q2 -3 1.5 -5.5t-0.5 -5.5zM278 271q2 3 4.5 5t4.5 4q9 12 18.5 24t18.5 24q20 27 39 55t35 58q7 14 12.5 29t11.5 30q4 8 -3 13q-3 -1 -7 -1t-7 -2q-5 -3 -9 -6.5t-9 -7.5
q-27 -24 -46 -61q-40 -72 -62 -150q-1 -3 -2.5 -6t1.5 -8z" />
    <glyph glyph-name="s_h" unicode="sh" horiz-adv-x="394" 
d="M218 307q-35 -57 -74 -109t-76 -106v-34q-1 -41 -31 -74q-8 -10 -17 -18.5t-20 -13.5l-7 -3.5t-6 -2.5q-13 -4 -21 4t-4 20q3 11 9 20q10 16 19.5 31t19.5 30l30 42q3 16 -5 33q-8 19 -21 35q-6 8 -12 17t-11 17q-9 18 -2 38q8 22 23 36t35 22q8 4 16.5 3.5t16.5 -2.5
q5 -3 9.5 -7t5.5 -11q0 -2 -1 -3.5t-2 -3.5q-8 -2 -11 3t-8 6h-6q-35 -12 -52 -47q-9 -19 3 -37q1 -1 1.5 -2t1.5 -2q11 -14 21 -29t17 -32q3 2 5 2t3 2q36 50 71.5 98.5t64.5 102.5q11 19 21 37.5t19 37.5q4 8 6.5 17t5.5 17q4 14 8 29t9 29q2 9 5.5 18t10.5 16q13 6 22 -7
q3 -18 -4 -35q-3 -8 -6 -16.5t-7 -16.5q-8 -19 -14.5 -38.5t-11.5 -39.5q-6 -23 -9.5 -37.5t-6.5 -27.5t-6.5 -27.5t-8.5 -37.5q-3 -14 -5.5 -29t-5.5 -30q4 -2 5.5 -0.5l3.5 3.5q10 10 19 20t19 20l10 8t10 7q9 6 16.5 5t15.5 -8q6 -8 8 -11q3 -13 4.5 -25t-1.5 -24
q-1 -4 -0.5 -7.5t0.5 -6.5q-1 -15 -6.5 -42.5t-12.5 -57t-13 -56.5t-7 -42q-1 -5 -0.5 -9.5t1.5 -9.5t1.5 -10t1.5 -10q-6 -9 -13 -3q-2 3 -4.5 6t-4.5 7q-2 8 -4 15t-2 15q1 13 1.5 26t1.5 26q1 11 6 34.5t11 49.5t10.5 49.5t4.5 34.5v27q-5 3 -6.5 1t-3.5 -4
q-12 -11 -24 -26.5t-23.5 -32.5t-22 -34t-19.5 -30q-2 -4 -5 -6.5t-5 -5.5q-8 4 -10.5 5.5t-8.5 8.5q6 29 10.5 54.5t9 50t9 49.5t10.5 55zM44 57q-17 -19 -29 -37.5t-23 -37.5q-1 -2 -1 -4t-1 -6q23 16 36 36t18 49z" />
    <glyph glyph-name="c_k" unicode="ck" horiz-adv-x="372" 
d="M19 121q10 -1 10 1t7 6q11 5 19.5 11t16.5 13q30 24 57 51t52 56q2 11 4 22.5t4 22.5q8 40 17.5 78.5t23.5 76.5q9 25 21.5 48t27.5 45q20 26 48 49q16 13 33 17t31.5 -4.5t17.5 -25.5q8 -25 2 -46q-10 -29 -27 -59q-33 -56 -74 -110q-18 -23 -36.5 -46t-39.5 -44
q-7 -7 -12.5 -14t-12.5 -15q-3 -17 -5 -33.5t-3 -33.5q6 -3 8.5 -1t5.5 4q17 18 37.5 32t43.5 25q10 5 19.5 8t23.5 -1q7 -5 12 -12q2 -5 1 -7q-2 -7 -6 -11.5t-9 -8.5q-8 -5 -16 -9.5t-15 -9.5q-5 -4 -9 -8t-8 -7q-5 -18 -2.5 -35.5t7.5 -34.5q12 -35 27 -68t35 -65
q2 -5 5 -8.5t6 -8.5q12 1 18 3q10 -13 9 -18t-12 -14q-17 0 -31 16q-1 2 -2 3.5t-2 3.5q-33 45 -55.5 92.5t-30.5 100.5q-1 12 -1 23t5 22q0 3 -2 6q-20 -12 -33.5 -30t-29.5 -33q-13 -6 -23 4q-8 18 -4.5 35t2.5 34q-4 3 -6 1.5t-4 -3.5l-22 -22t-23 -22t-24 -21t-25 -20
q-26 -20 -58 -23q-3 0 -11 2q-10 5 -16.5 14t-4.5 19q1 15 7 37t15.5 43t21.5 39t25 26q14 9 25 11.5t30 0.5q5 -2 10 -5.5t8 -9.5q5 -7 -1 -11q-6 -2 -10 3.5t-9 6.5q-17 2 -31 -14.5t-25 -40.5t-19 -49t-12 -40q-1 -2 0.5 -4.5t2.5 -5.5zM386 592q-10 2 -15.5 1t-10.5 -4
t-8.5 -6t-8.5 -6q-38 -32 -63 -79q-23 -43 -36 -89.5t-24 -94.5l4 -8q3 4 5.5 6.5l5.5 5.5q19 23 38 45.5t36 46.5q17 27 34.5 55t31.5 57q4 9 7 18.5t7 18.5q4 13 -3 33z" />
    <glyph glyph-name="s_t" unicode="st" horiz-adv-x="273" 
d="M128 -191q-4 2 -7.5 4t-6.5 4q18 69 31 137.5t27 137.5t25.5 137.5t22.5 137.5q-4 4 -5 4q-6 0 -10 -3q-2 -2 -4 -5l-4 -6q-24 -42 -51 -80.5t-54 -77.5l-54 -78q2 -17 -4 -32t-16 -29q-11 -14 -24 -26t-29 -19q-10 -1 -15 7q-4 10 2 19l36 48q7 9 13.5 17.5t13.5 18.5
q-1 4 -1 7.5t-2 8.5q-2 8 -5.5 16.5t-5.5 16.5q-5 18 -4.5 35.5t11.5 34.5q9 14 22 20t29 8q19 2 26 -17q-2 -4 -4 -7h-5q-15 7 -29 0q-18 -7 -24 -25q-3 -6 -4.5 -12t-3.5 -13q2 -8 5 -17.5t5 -18.5q1 -2 2 -4.5t2 -4.5q6 0 6 1q24 34 48 67.5t47 67.5q12 19 24 37.5
t22 39.5q-12 2 -22 1.5t-21 -2.5q-28 -4 -56 -7t-56 -3q-6 0 -11.5 0.5t-11.5 1.5q-4 8 -6 13q17 7 33.5 7.5t32.5 3.5q17 2 34.5 4t34.5 4q16 2 32.5 3.5t34.5 3.5q11 18 22 37l22 38q10 0 15 1q2 -5 4.5 -9t4.5 -7q-2 -14 -4.5 -26.5t-4.5 -26.5q8 -4 14.5 -3t13.5 2l24 3
q20 2 40 2t40 2q18 2 36 2t36 -1q9 0 18 -2t17 -4q12 -3 17 -10.5t7 -22.5q-4 -2 -7 -4q-4 4 -8 7.5t-8 6.5q-4 2 -6 2q-11 1 -22 1.5t-22 0.5q-24 0 -48 -0.5t-48 -1.5q-22 -1 -43 -2.5t-42 -3.5q-4 0 -7 -1.5t-7 -2.5q-3 -16 -6 -31.5t-6 -30.5q-5 -27 -9 -53.5t-9 -52.5
q-8 -42 -16 -82.5t-16 -81.5q-11 -52 -21.5 -103t-22.5 -102q-2 -7 -4 -13.5t-10 -13.5z" />
    <glyph glyph-name=".notdef" horiz-adv-x="318" 
 />
    <glyph glyph-name="NULL" horiz-adv-x="0" 
 />
    <glyph glyph-name="NULL" horiz-adv-x="0" 
 />
    <glyph glyph-name="nonmarkingreturn" unicode="&#xd;" horiz-adv-x="318" 
 />
    <glyph glyph-name="space" unicode=" " horiz-adv-x="318" 
 />
    <glyph glyph-name="j" unicode="j" horiz-adv-x="118" 
d="M130 177q-5 -5 -7 -6q-14 -3 -26 -9t-24 -14q-17 -11 -25 -16t-14 -9.5t-14 -11l-24 -19.5q-5 -11 -12 -29q-17 -46 -37.5 -89.5t-49.5 -84.5q-9 -14 -20.5 -25.5t-23.5 -22.5q-18 -17 -42 -21l-15 -3q-10 2 -16 3.5t-9.5 4t-7 6l-9.5 9.5q-5 17 -0.5 32t12.5 29
q11 19 26 38q23 29 49 54t55 48q16 14 32 26t33 25q15 12 19 29q5 19 13 40t13 40q2 6 4 11.5t7 9.5q11 4 16 -8q-8 -18 -15 -39.5t-11 -40.5q4 -4 6.5 -3t4.5 3q11 8 13.5 10t3 2.5t3 2t14.5 9.5q11 7 21.5 12.5t21.5 10.5q11 7 24 5q8 0 11 -9zM-45 62q-7 -5 -12 -9.5
t-11 -8.5q-30 -23 -57.5 -49t-53.5 -54q-10 -11 -19 -23.5t-17 -25.5q-5 -7 -8 -15.5t-6 -16.5q-4 -12 6 -22q3 -1 6.5 -2t6.5 -2q19 2 33.5 10.5t26.5 21.5q11 11 22 25q28 38 48 79t37 84q0 2 -0.5 3.5zM51 282q-6 4 -9.5 6.5t-7.5 4.5q6 16 15 27.5t20 22.5q2 2 5 1.5
t6 0.5q2 -3 3 -5.5t3 -5.5q-8 -12 -16.5 -25t-18.5 -27z" />
    <glyph glyph-name="y" unicode="y" horiz-adv-x="350" 
d="M17 126q19 6 34.5 16t29.5 23q21 18 41.5 36t41.5 36q3 3 11 9h18q2 -2 3 -2.5t2 -1.5q7 -12 4 -27q-3 -11 -6.5 -25.5t-7.5 -30t-7.5 -30.5t-5.5 -26q-1 -3 -1.5 -6t1.5 -7q5 -2 8 1t6 5q22 14 43.5 29t43.5 29q14 9 29.5 17t32.5 13q13 5 26 2q1 -2 1.5 -5t2.5 -6
q-2 -2 -3 -2.5l-3 -1.5q-20 -5 -38.5 -14t-35.5 -20q-68 -42 -130 -91q-4 -9 -7.5 -18.5t-7.5 -18.5q-10 -26 -22 -50t-24 -47q-8 -16 -18 -29.5t-21 -27.5q-9 -12 -20 -21t-27 -16q-4 -1 -9 -1.5t-10 0.5q-26 2 -28 28q0 7 0.5 13t3.5 12q6 11 11 21.5t12 21.5q20 32 45 58
t54 50q10 9 20.5 17t21.5 16q7 19 14.5 42t13.5 45t10 41t4 30q-10 -5 -17 -11.5t-15 -13.5q-17 -15 -34.5 -29.5t-35.5 -28.5q-8 -6 -13.5 -9.5t-10.5 -6t-11.5 -4.5t-16.5 -5q-4 0 -5 1q-5 2 -8 3l-6 2q-10 10 -11.5 21t0.5 22q3 13 7 25t9 25q4 11 12 13q10 -1 10 -11
q-1 -5 -2 -10.5t-3 -10.5q-2 -11 -5.5 -21.5t-5.5 -21.5q-1 -3 -0.5 -6.5t5.5 -8.5zM-13 -159q8 -3 14 -1t11 6q20 17 35 38q20 27 34.5 56.5t28.5 59.5q1 2 1 10q-13 -11 -24.5 -22.5l-22.5 -22.5q-16 -16 -30 -32.5t-26 -35.5q-13 -20 -21 -44q-1 -3 -0.5 -5.5t0.5 -6.5z
" />
    <glyph glyph-name="g" unicode="g" horiz-adv-x="253" 
d="M102 161q-7 0 -10.5 -4t-7.5 -8q-15 -11 -30.5 -19t-35.5 -11q-1 0 -9 2q-35 13 -21 45q2 5 4.5 10t5.5 10q17 23 38.5 39.5t48.5 26.5q14 5 24 2.5t24 -13.5q3 -10 3 -20.5t10 -18.5q-3 -13 -6 -24.5t-6 -22.5q-4 -11 -7.5 -22t-7.5 -22q4 -3 5.5 -1.5l3.5 3.5
q18 12 35.5 24.5t35.5 23.5q12 8 25 15.5t29 11.5q8 -2 13 -6t6 -14q-17 -4 -31.5 -12t-28.5 -17q-29 -19 -57 -40t-56 -43q-8 -17 -15.5 -33.5t-15.5 -33.5q-17 -36 -35 -70.5t-40 -67.5q-14 -21 -29 -41.5t-34 -38.5q-9 -8 -19.5 -15t-22.5 -11l-6 -2t-7 -1q-23 -2 -34 10
t-11 29q0 11 1.5 21t6.5 20q15 34 39 66q45 59 105 109q17 14 35 28.5t35 29.5l10 8t10 9q16 40 29 79q1 2 0.5 5t-0.5 5q2 1 3.5 1t-0.5 3q-2 -2 -2 -4zM41 6q-6 0 -10 -3.5t-8 -7.5q-8 -5 -14 -11.5t-13 -12.5q-52 -43 -94 -97q-11 -14 -21.5 -29.5t-17.5 -33.5
q-6 -14 -9 -31q-3 -11 9 -16q11 0 20.5 5t17.5 13q19 16 33 34q32 42 58 88t48 95q1 2 0.5 4t-0.5 4q1 1 2 1h1zM11 145q4 0 7.5 -0.5t6.5 0.5q5 2 10 4.5t10 4.5q20 11 35.5 27t31.5 32q2 3 3.5 7.5t-1.5 9.5q-2 0 -4.5 1t-4.5 0q-53 -18 -84 -63q-3 -5 -6.5 -10t-3.5 -13z
" />
    <glyph glyph-name="n" unicode="n" horiz-adv-x="350" 
d="M195 251q-15 -12 -36 -29.5t-36 -30.5q-19 -15 -37 -30.5t-37 -31.5q-5 -4 -9 -6.5t-9 -6.5q-15 -12 -33 -7q-11 5 -11 18v8.5t1 8.5q5 25 13.5 48t18.5 45q8 4 19.5 2.5t13.5 -6.5q0 -4 -2 -12q-6 -17 -12 -35t-11 -35q4 -4 15 4t24 20t26.5 25t24.5 20l34 28l34 28
q5 4 10 7l10 6q15 5 23 -5q6 -6 6.5 -12.5t-1.5 -13.5q-1 -5 -3 -9t-4 -9q-7 -17 -14 -33t-14 -33q-4 -11 -6.5 -21t-5.5 -21q-2 -11 3 -21.5t16 -8.5q17 5 33 12.5t31 17.5q11 7 26.5 16.5t26.5 17.5q5 3 13 11.5t15 9.5q7 -1 8 -5t0 -11q-2 -5 -3 -5q-21 -14 -46 -31.5
t-46 -31.5q-17 -11 -37 -19q-17 -6 -35 -4q-18 1 -29 19q-4 6 -4.5 14t1 16t3.5 16.5t4 14.5q3 19 9.5 36t14.5 34q2 5 3.5 9t3.5 9z" />
    <glyph glyph-name="z" unicode="z" horiz-adv-x="328" 
d="M60 57q4 -2 6.5 -3t4.5 -1q16 -2 33 3q85 26 165 74q12 7 28 21t25 25l9 9q12 3 13 -9q-5 -12 -18.5 -27t-24.5 -23t-22 -15t-22 -13q-31 -17 -63 -31t-65 -27q-16 -6 -33 -9t-37 2q-3 3 -7.5 7t-8.5 8q-5 17 -2.5 31t8.5 28q6 12 12.5 24t13.5 25q5 10 11 20t11 21
q3 5 5 10.5t4 10.5q-4 9 -12 7l-63 -3q-4 -1 -7 -2t-7 0t-7 2.5l-7 3.5q1 3 1 5.5t1 5.5q26 5 51.5 9t52.5 -1q3 -3 14 -4t14 -3q3 -10 4 -20t-1 -18q-7 -17 -14 -30q-6 -12 -13 -24l-14 -24q-8 -14 -22.5 -29.5t-16.5 -35.5z" />
    <glyph glyph-name="q" unicode="q" horiz-adv-x="271" 
d="M2 -95q5 1 8 4.5t6 7.5q23 26 45.5 53t46.5 53q22 25 44.5 49t45.5 48q8 10 14 16.5t11 11.5t11.5 11t16.5 14q5 4 9.5 7.5t12.5 5.5q5 -2 10 -4.5t4 -10.5q-1 -2 -1 -3t-1 -2q-9 -5 -16 -11t-14 -13q-16 -16 -28.5 -29t-24.5 -26t-23.5 -26.5t-26.5 -30.5
q-32 -38 -64.5 -76.5t-64.5 -77.5q-14 -17 -27 -35t-26 -35q-5 -6 -8.5 -11.5t-8.5 -10.5q-8 -2 -11 -1q-14 5 -12 16q1 5 2 9.5t3 9.5q28 73 57.5 145.5t61.5 144.5q3 7 6.5 13.5t2.5 14.5l2 2q0 -1 -0.5 -1.5t-0.5 -1.5q-9 -5 -16 -10q-17 -14 -29 -20t-32 -12
q-1 1 -2 0.5t-3 0.5q-17 8 -21.5 17t3.5 26l6 12q15 22 33 41t40 34q14 10 22 11t28 -1q11 -5 15 -14.5t6 -21.5q1 -26 -9 -51q-8 -19 -16.5 -37.5t-16.5 -38.5q-15 -35 -30 -69.5t-30 -69.5q-3 -7 -6.5 -13.5t-2.5 -14.5l-2 -2v1q0 1 0.5 1t0.5 1zM-14 120q18 4 28 13
q9 8 18 15.5t17 15.5q11 10 20.5 20t19.5 21q1 1 1 2t1 3q-1 1 -1.5 2t-2.5 2q-2 2 -5 2q-29 -11 -56 -38t-40 -58z" />
    <glyph glyph-name="x" unicode="x" horiz-adv-x="281" 
d="M66 150q5 -20 9.5 -39t21.5 -32q15 -6 28 -2.5t25 10.5q17 11 33 22.5t32 24.5q17 14 26 22t26 22q3 3 6.5 5t6.5 4q10 0 12 -6q0 -2 0.5 -3.5t-0.5 -2.5q-11 -10 -21 -20t-21 -20q-8 -7 -13.5 -12t-11 -9.5t-11.5 -9t-14 -11.5q-13 -11 -27 -20.5t-31 -16.5
q-23 -9 -43 -3t-34 26q-12 15 -16 29q-1 5 -2.5 8.5t-3.5 7.5q-5 2 -7 -0.5t-4 -4.5q-22 -17 -39.5 -37t-34.5 -41q-2 -2 -3.5 -4t-2.5 -3q-10 -5 -15 5v5q14 25 33 44q12 13 24 25l24 24l9.5 9.5l9.5 9.5q-2 22 -4 42.5t6 40.5q7 6 16 -1q2 -13 3 -26.5t3 -27.5q5 -3 8 -1
t5 4q20 17 38.5 33t38.5 33q7 5 13.5 10t13.5 9q4 2 8 2t8 1q2 -3 3 -5l2 -4l-2 -6q-11 -9 -21.5 -18t-21.5 -18q-21 -18 -43 -36t-45 -38z" />
    <glyph glyph-name="u" unicode="u" horiz-adv-x="294" 
d="M125 169q-10 -12 -19.5 -24.5t-20.5 -23.5q-14 -16 -29 -28.5t-35 -18.5q-16 0 -24 11q-11 13 -10 28q2 28 7.5 55t19.5 53q2 3 4.5 5.5l4.5 4.5q7 0 9 -1q2 -3 4.5 -6.5t4.5 -7.5q-14 -16 -17.5 -34.5t-8.5 -37.5q-2 -8 -3 -16t-3 -16q0 -5 0.5 -8.5t5.5 -6.5q5 0 9 2.5
t8 4.5q19 13 34 30t29 35q12 16 23 32.5t22 33.5q3 5 7 10.5t12 7.5q2 -2 5.5 -3.5t7.5 -3.5q4 -12 3 -23.5t-4 -23.5q-5 -15 -9 -30t-6 -31q-1 -8 -1.5 -12.5t-0.5 -8.5t1.5 -9t4.5 -13q2 -2 8 -6h6q15 5 27.5 13.5t23.5 18.5q14 13 27 26l26 26q5 4 8.5 7.5t7.5 6.5
q14 3 17 -11q-2 -2 -3 -4t-3 -4q-19 -20 -37.5 -39t-38.5 -38q-5 -5 -11.5 -9t-12.5 -9q-8 -5 -16.5 -6.5t-17.5 -0.5q-21 0 -33 17q-6 9 -10 18.5t-4 20.5v23t1 24z" />
    <glyph glyph-name="s" unicode="s" horiz-adv-x="242" 
d="M145 271q0 -6 1 -8q-2 -1 -3 -2t-2 -1q-17 2 -31.5 -3t-27.5 -15q-9 -6 -17 -12t-16 -13q-9 -8 -15.5 -18.5t-8.5 -24.5q0 -7 3 -13t8 -11l6 -6t6 -5q14 -11 24.5 -24t18.5 -29q5 -1 8 2t7 5q3 2 5.5 4t5.5 4l96 69q8 5 15.5 9.5t16.5 6.5q13 -7 15 -10t1 -15
q-14 -5 -26.5 -13.5t-24.5 -17.5q-29 -20 -56.5 -41.5t-55.5 -42.5q-11 -34 -31 -60t-47 -48q-5 -5 -11.5 -9t-13.5 -8q-20 -11 -35 5q-6 13 0 32q20 32 48.5 57t59.5 49q0 9 -2 13q-3 9 -8 16t-12 14q-8 7 -14.5 14t-14.5 15q-17 17 -17.5 41t14.5 42q36 44 87 60
q6 2 12.5 2h12.5q5 0 9.5 -3t9.5 -7z" />
    <glyph glyph-name="e" unicode="e" horiz-adv-x="199" 
d="M-8 172q18 49 62 75q5 3 12 5t13 4q13 3 24 -5q19 -12 9 -33q-3 -7 -7.5 -11.5l-9.5 -9.5q-30 -22 -66 -34q-2 0 -4 -1l-4 -2q-15 -35 -12 -51t18 -18.5t37.5 6t47 22.5t47 31t36.5 31q8 5 12 4t12 -9q-2 -3 -3.5 -7t-4.5 -6q-23 -16 -44 -33t-42 -31.5t-45 -23.5t-53 -9
q-24 2 -35 12.5t-13 25.5t2.5 33t10.5 35zM91 234q-15 -3 -26 -11t-20 -19q-2 -2 -4 -5t1 -8q23 9 43 27q3 3 5.5 6t0.5 10z" />
    <glyph glyph-name="w" unicode="w" horiz-adv-x="310" 
d="M230 342q11 3 17 -1t11 -12q4 -16 0.5 -30.5t-8.5 -28.5q-14 -41 -30 -77q-3 -8 -4.5 -16t0.5 -16q3 -9 7 -17.5t13 -13.5q5 -2 9.5 -1t9.5 3q13 8 24.5 18t19.5 23q3 4 6 7.5t5 5.5q7 2 10 -0.5t5 -6.5q0 -5 -1 -8q-7 -17 -18.5 -29t-25.5 -23q-5 -3 -9 -6t-9 -5
q-11 -2 -17.5 -2.5t-13 1.5t-15 8t-21.5 18q-4 -8 -6 -11.5t-3.5 -6.5t-4 -6.5t-6.5 -11.5q-11 -21 -23 -40q-11 -17 -30 -20q-17 4 -24 24q-10 24 -11 48q0 5 -0.5 9.5t-0.5 10.5q-11 -12 -19.5 -24.5t-16.5 -25.5t-17 -24.5t-20 -21.5q-22 0 -25 22q-1 4 -1 7.5t-1 8.5
q-2 30 2 59t11 58q2 8 5 15.5t8 13.5q8 4 14 -3v-6.5t-1 -7.5q-7 -22 -11 -43t-5 -44l-2 -20t-2 -21q0 -8 7 -11q18 26 35.5 51t35.5 51q1 2 2.5 2.5t3.5 2.5q8 -1 10.5 -2t9.5 -8q0 -11 0.5 -22.5t-0.5 -22.5q0 -12 2 -23.5t5 -22.5q1 -4 2.5 -6.5t3.5 -5.5q8 4 12.5 10
t9.5 12q8 13 13.5 22.5t10 18t8.5 18t10 23.5q-5 28 -3.5 54.5t8.5 52.5q4 19 14 42q4 12 14 23q2 4 5.5 6.5t5.5 4.5zM221 255q0 1 1 1h1q4 9 7 18t1 20q1 1 2 1t1 1q0 -1 -2 -3q-13 -15 -11 -38q-6 -3 -2 -10q1 3 1 5.5t1 4.5z" />
    <glyph glyph-name="t" unicode="t" horiz-adv-x="83" 
d="M37 333q-20 4 -35.5 1t-32.5 -5q-16 -2 -32 -5t-33 -6l-4 4t-6 5q3 3 5 5.5t4 4.5q12 7 21 8q17 4 34.5 6.5t34.5 5.5q13 2 27 3.5t29 3.5q3 8 8 16l18 34l18 34q4 6 7.5 11t10.5 7q11 -1 13 -14q-10 -20 -21.5 -40t-19.5 -44q5 0 8 -0.5t6 -0.5q24 2 49.5 2t49.5 2
q36 4 75 -3q11 -3 20 -9q13 -8 7 -22q-3 1 -5 0.5t-3 1.5q-9 7 -18 9t-19 2q-14 0 -27.5 -0.5t-27.5 -1.5q-8 -1 -16 -1t-16 -1q-23 -2 -47 -2.5t-47 -2.5q-2 -5 -4 -9t-4 -9q-11 -28 -19.5 -57t-16.5 -58q-11 -41 -19.5 -82t-14.5 -84q-3 -18 -3.5 -36t-2.5 -37
q0 -5 1 -10.5t2 -10.5q2 -8 4 -14t2 -13q-4 -4 -5 -4q-2 2 -5 2.5t-4 2.5q-3 7 -6 13t-5 13q-7 31 -4 66q4 37 10 73t14 71q9 42 19 82.5t24 80.5q1 2 1 5t1 7z" />
    <glyph glyph-name="a" unicode="a" horiz-adv-x="230" 
d="M-9 79q-6 -2 -8 -2q-21 2 -20 20q0 7 2 17q12 32 27 61.5t38 55.5q3 4 6.5 7t7.5 7q10 9 21.5 13.5t27.5 -0.5q4 -3 8 -6.5t9 -8.5q5 0 7 2t4 5q7 8 13.5 15.5t14.5 15.5q2 0 5 0.5t6 0.5q7 -2 10.5 -7t1.5 -11q-3 -13 -9 -23q-12 -29 -25 -56q-5 -11 -7.5 -23t-5.5 -24
q-1 -5 0.5 -7t6.5 -9q8 -1 14 2t11 8q7 5 12.5 8.5t10 7t9.5 7.5t12 9q8 6 15 12t14 11q16 0 16 -14l-2 -4t-3 -4q-18 -16 -30 -26.5t-30 -26.5q-5 -5 -11 -8l-12 -6q-15 -8 -35 -3q-11 2 -18.5 12t-9.5 22q-1 11 -0.5 21.5t4.5 21.5q2 4 2.5 7t-2.5 8q-11 -8 -18.5 -18.5
t-16.5 -19.5q-9 -8 -17.5 -17.5t-16.5 -17.5q-10 -9 -19 -18.5t-20 -16.5zM-9 112l8 4q26 25 50 50t45 53l2 7q-2 4 -4.5 8.5t-5.5 9.5q-10 -2 -14 -4q-10 -5 -17 -12t-13 -15q-29 -38 -45 -81q-2 -5 -3 -9.5t-3 -10.5z" />
    <glyph glyph-name="c" unicode="c" horiz-adv-x="208" 
d="M223 177q-4 -8 -9.5 -13t-11.5 -10q-14 -12 -22.5 -17.5t-16 -10t-17 -9.5t-24.5 -15q-14 -8 -28 -15t-28 -15q-19 -10 -42 -10t-34 13t-13 31q-2 8 0 16q10 46 33.5 83t62.5 63q17 11 36 11q5 0 8 -1q9 -2 12 -10q5 -10 -7 -17q-2 1 -5 2t-7 2q-3 0 -5 -1
q-16 -8 -28 -19.5t-23 -25.5q-15 -17 -25 -37t-17 -43q-6 -17 -2 -36l6 -2t7 -1q11 -1 21.5 3t20.5 9q20 11 39.5 21.5t39.5 22.5q12 7 18 10t10.5 5.5t10 6.5t16.5 13q6 4 9 5q8 5 15 -9z" />
    <glyph glyph-name="d" unicode="d" horiz-adv-x="233" 
d="M161 279q-5 0 -9 -8q-18 -27 -36 -54.5t-37 -53.5q-11 -16 -23 -30t-24 -29q-4 -4 -8 -7t-9 -6q-18 -12 -35 5q-9 17 -4 34q8 31 23 57t41 45q7 5 15 8t19 -1q3 -3 7 -6.5t9 -8.5q8 6 12 14t10 15q6 8 11 16.5t11 16.5q5 8 9.5 15.5t9.5 15.5t10 15.5t10 15.5
q6 8 11 16.5t10 16.5q8 15 19 32q4 8 8.5 15.5t9.5 15.5t9 16t9 16l8 18t9 18q3 8 6.5 16.5t9.5 14.5q8 2 12.5 -2t6.5 -9q2 -3 0 -5q-14 -41 -31 -76q-11 -28 -23 -55t-23 -54q-22 -54 -34.5 -109.5t-21.5 -112.5q-9 -63 -12 -127q-1 -11 0.5 -23t1.5 -25q0 -3 -5 -6
q-6 2 -11 4.5t-9 8.5q0 1 -1 3l-2 4q-3 20 -4 41t0 41q2 29 3.5 57t5.5 56q5 29 11 56.5t14 55.5q1 5 1 14q1 0 2.5 0.5t-0.5 3.5q-1 -2 -1 -2.5t-1 -2.5zM0 113q28 19 57 60q3 5 6.5 10.5t6.5 10.5q0 7 0.5 13t-5.5 12q-12 -3 -19 -11t-14 -17q-31 -40 -32 -78z" />
    <glyph glyph-name="k" unicode="k" horiz-adv-x="177" 
d="M137 267q15 -5 20 -11t5 -20q0 -15 -7 -26q-8 -13 -19 -23t-26 -15l-22 -6l-22 -6q-3 -3 -3 -7.5t1 -9.5q9 -50 19.5 -98.5t24.5 -97.5q2 -8 3 -11q-5 -5 -8.5 -5.5t-8.5 0.5q-10 4 -15 18l-8 28l-8 28q-4 17 -7.5 33.5t-6.5 33.5t-5.5 35t-4.5 38q-14 -16 -23 -33.5
t-16 -36.5h-18q-1 4 -2.5 7t-0.5 6q1 8 3 15l4 14q12 48 24 94.5t25 94.5q14 53 31.5 104t35.5 103q2 5 3.5 11t3.5 12q8 9 12 8.5t12 -11.5q0 -8 -2.5 -14.5t-4.5 -14.5q-9 -28 -18.5 -55.5t-18.5 -56.5q-17 -52 -31 -104t-28 -105q0 -1 0.5 -2t0.5 -3q4 -2 5 0.5t3 4.5
q13 17 27.5 32t30.5 30q9 8 19 14t21 8zM138 250q-22 -11 -38 -28t-30 -35q-1 -1 1 -6q6 2 13 2.5t13 2.5q35 12 47 47q1 4 0 8t-6 9z" />
    <glyph glyph-name="o" unicode="o" horiz-adv-x="198" 
d="M64 249h19q11 -5 15.5 -12.5t6.5 -17.5q3 -13 1 -25.5t-5 -31.5q7 -1 12.5 -1t14.5 2t25 8t45 17q8 -6 11 -9q1 -4 1 -7q-4 -8 -14 -11l-33 -15q-13 -5 -20.5 -7.5t-15 -4t-16 -2t-22.5 -0.5q-5 -4 -8.5 -10t-7.5 -12q-9 -14 -18.5 -22t-23.5 -17q-10 -6 -21 -9t-24 0
q-10 4 -15.5 11t-9.5 17q-1 20 5 37t14 33q11 21 22.5 41.5t30.5 35.5q5 -1 9 -1t8 -1zM36 199l-4 -2q-23 -34 -36 -70q-6 -14 -9 -27q-1 -4 -1 -8t5 -8q8 -2 15 1.5t13 7.5q15 9 25 19.5t20 27.5q-15 10 -20 26t-7 31q-2 2 -2 3h2q1 0 1 2q-2 -2 -2 -3zM74 162q6 11 10 26
t3 28q0 9 -9 10q-6 -5 -8.5 -12t-5.5 -14q0 -8 -1.5 -17.5t2.5 -16.5q6 -2 9 -4z" />
    <glyph glyph-name="f" unicode="f" horiz-adv-x="169" 
d="M25 150q-2 -4 0 -7q7 -30 5 -58t-8 -56q-6 -38 -17 -73t-26 -69q-2 -5 -4 -8.5t-4 -8.5l-4.5 -4.5l-4.5 -4.5q-5 -1 -15 -1l-15 12q0 3 -0.5 5t-0.5 4q-2 19 0.5 37t5.5 36q8 41 18 80t22 78q5 15 8.5 29.5t8.5 29.5q2 7 5 13.5t5 13.5q23 73 51 140q3 6 6 12.5t7 12.5
q2 4 5.5 6t6.5 5q5 -3 8 -5t5 -4q4 -11 1.5 -18t-7.5 -14q-2 -5 -5 -8t-4 -8q-12 -32 -23.5 -65t-23.5 -65q0 -2 0.5 -4t0.5 -5q18 -4 34.5 -3.5t33 2.5t33.5 4.5t35 4.5l5 -5l5 -5q3 -8 -4 -10q-8 -2 -16.5 -3t-17.5 -3q-25 -5 -50 -10.5t-51 1.5q-4 1 -7 1t-7 -2zM-33 -72
q8 18 15 40t12.5 44.5t8 43t2.5 37.5q-11 -26 -17 -50.5t-13 -49.5q-4 -15 -7.5 -30.5t-2.5 -32.5z" />
    <glyph glyph-name="v" unicode="v" horiz-adv-x="200" 
d="M13 104q2 2 3.5 2t1.5 1q6 7 13.5 19.5t15.5 25.5t14.5 25.5t10.5 20.5q6 63 40 116q5 8 10.5 14.5t14.5 11.5q3 -2 6 -2.5t6 -2.5q4 -9 3 -17t-4 -16q-5 -13 -11 -26t-11 -27l-21 -42q-3 -5 -5 -10l-4 -10q2 -9 5 -17.5t13 -14.5q11 -3 22.5 1t23.5 8q11 4 20.5 10
t19.5 14q3 -1 5.5 -2t5.5 -2q-1 -4 -0.5 -6.5t-1.5 -4.5q-3 -7 -8.5 -11t-11.5 -8q-28 -15 -60 -20q-21 -4 -39 15q-6 6 -8 10q-7 -3 -9.5 -7.5t-5.5 -9.5q-7 -11 -10 -16t-6 -9t-6 -9t-10 -16q-6 -10 -14 -20q-3 -4 -7 -6.5t-7 -4.5q-15 1 -21 14q-3 18 0.5 36.5t6.5 37.5
q3 23 7 45.5t10 43.5q12 5 18 -5q-1 -15 -4 -30.5t-5 -32.5t-5.5 -33t-0.5 -33z" />
    <glyph glyph-name="b" unicode="b" horiz-adv-x="228" 
d="M178 218q9 -26 2.5 -46t-25.5 -35q-15 -12 -32.5 -19t-36.5 -12q-17 -4 -35 -7t-37 -7q-2 -4 -4 -7.5t-4 -7.5q-4 -11 -7 -21.5t-7 -21.5q-2 -6 -5 -11.5t-9 -10.5q-2 0 -5 -0.5t-6 0.5q-16 4 -16 18q2 5 3 10.5t4 10.5q13 30 20.5 62.5t17.5 64.5q25 84 53 164.5
t66 156.5q8 17 16.5 33t16.5 32q3 6 6.5 11.5t8.5 9.5q6 0 8 -1q8 -5 8 -15q-45 -93 -79.5 -190t-63.5 -199q-1 -1 2 -6q5 4 9 8.5t8 9.5q18 18 44 36q5 4 11 6.5t13 4.5q23 11 47 -12q2 -2 4 -4.5t4 -4.5zM36 122q9 2 15 3t11 3q36 10 66 30q8 6 13.5 13.5t10.5 16.5
q5 14 -1 25q-7 6 -17 2q-5 -2 -10 -5.5t-9 -6.5q-23 -16 -42 -36t-37 -45z" />
    <glyph glyph-name="l" unicode="l" horiz-adv-x="145" 
d="M115 518q8 -2 11 -3q2 -7 1.5 -12.5t-2.5 -11.5q-11 -30 -21.5 -60t-21.5 -61q-11 -34 -22.5 -67.5t-21.5 -67.5q-7 -22 -12.5 -44t-7.5 -45q0 -9 -2 -14q-5 -14 -3.5 -28.5t3.5 -28.5q1 -3 3.5 -5.5l4.5 -4.5q11 1 18.5 5.5t15.5 10.5q22 19 39 40q10 14 21 28.5
t21 28.5q2 3 4 5l4 4q11 3 14 -9q-17 -23 -34 -47.5t-36 -46.5q-6 -6 -12.5 -11.5t-12.5 -10.5q-25 -20 -53 -13q-13 8 -17 21.5t-4 27.5q-2 23 0 45.5t7 45.5q4 26 9.5 50.5t13.5 49.5q17 53 35 104.5t41 102.5q2 5 5.5 11t11.5 11z" />
    <glyph glyph-name="h" unicode="h" horiz-adv-x="191" 
d="M39 187q22 26 42.5 51t51.5 40q5 -2 8.5 -4.5t7.5 -4.5q5 -10 4 -19.5t-3 -19.5q-5 -23 -9.5 -45.5t-8.5 -45.5q-4 -19 -7 -37t-6 -37q-2 -14 -5 -27t-5 -27q-1 -8 -1 -17.5t-2 -17.5q0 -4 -1.5 -7.5t-2.5 -7.5q-18 -7 -26 9q0 5 -0.5 11.5t0.5 13.5l2 22t3 22
q4 31 9.5 61.5t13.5 60.5q5 18 9.5 35.5t9.5 35.5q1 4 1 7t-3 7q-20 -17 -37 -36.5t-32 -41.5q-14 -21 -24 -44.5t-20 -46.5q-16 -7 -26 6q0 5 -0.5 10.5t1.5 10.5q5 32 12.5 62.5t15.5 61.5q14 55 32 109t38 108q10 26 22.5 50.5t26.5 48.5q4 6 8.5 12t12.5 11q3 -2 6 -4.5
t7 -4.5q-2 -10 -4 -14q-8 -17 -15 -34t-15 -34q-17 -38 -29.5 -77t-25.5 -78q-8 -25 -15 -50t-15 -50q-2 -8 -4 -15t-4 -15q1 0 1 -1q0 -2 1 -3z" />
    <glyph glyph-name="i" unicode="i" horiz-adv-x="164" 
d="M51 264q-6 -1 -11 10q4 10 9 19t13 16q8 8 16.5 14.5t19.5 8.5q4 -2 8.5 -7t3.5 -10q-5 -8 -14 -12.5t-16 -12.5q-7 -7 -14 -13t-15 -13zM26 214q5 -8 9 -12.5t2 -9.5q-5 -11 -10 -20.5t-8 -20.5q-7 -20 -8 -37q-3 -11 6 -21q7 -3 9.5 -2t8.5 4q10 5 18.5 10t16.5 10
q24 17 47.5 34.5t48.5 36.5q6 2 9 -6q1 -7 -2 -10.5t-6 -6.5q-23 -21 -48 -40t-51 -36q-8 -5 -16.5 -8t-17.5 -7q-13 -5 -27 1q-8 3 -14 8.5t-9 14.5q-1 3 -1.5 6.5t-2.5 5.5q-1 25 6.5 46.5t17.5 41.5q4 9 11 15q2 2 5 2t6 1z" />
    <glyph glyph-name="r" unicode="r" horiz-adv-x="152" 
d="M31 169q9 11 20 25.5t22.5 29t23 27t22.5 20.5t26 15q11 4 24 -2q12 -8 11 -21q-2 -1 -3.5 -2t-3.5 -2q-3 2 -6 2.5t-7 2.5q-3 0 -5 -1q-12 -8 -25 -21.5t-25 -28.5t-23 -30t-20 -27q-10 -13 -17.5 -26.5t-15.5 -27.5q-6 -14 -12 -24q-20 -8 -30 14q2 8 2.5 17t2.5 17
q2 14 3.5 25t3.5 21t4 20.5t6 24.5q2 8 5 15t9 14h18q2 -4 3.5 -7.5t3.5 -6.5q-10 -12 -12 -16.5t-4 -18.5q-1 -6 -2 -8t-1 -4t0.5 -5.5z" />
    <glyph glyph-name="p" unicode="p" horiz-adv-x="366" 
d="M-8 26q4 0 5.5 3t3.5 6q27 42 58.5 78.5t66.5 71.5q11 10 23 20t23 19q6 5 12.5 8.5t13.5 7.5q9 5 18 6.5t20 -0.5q23 -11 16 -39q-2 -9 -4.5 -17.5t-4.5 -17.5q11 -1 22 2.5t22 5.5q11 1 22 2.5t22 2.5q12 1 23.5 1.5t22.5 -2.5q5 -6 6 -8t0 -10q-14 -4 -28.5 -3
t-28.5 -1q-14 -3 -27 -5t-27 -5t-28 -6.5t-27 -10.5q-16 -20 -34.5 -36.5t-41.5 -27.5q-8 -2 -16 -2.5t-17 3.5q-2 2 -5 6t-5 7q2 10 7 16.5t12 11.5q16 13 33.5 22t35.5 17q6 1 11 4q10 10 16.5 21.5t12.5 24.5q2 4 2 8t1 8q0 1 -1 2t-2 3q-18 -4 -34 -17
q-11 -9 -21.5 -17.5t-20.5 -18.5q-37 -34 -69.5 -72t-60.5 -81q-19 -28 -34 -58t-25 -63q-2 -5 -3.5 -11.5t-3.5 -11.5q-1 -3 -3 -5.5t-4 -6.5q-5 2 -8 3t-6 3l-6 12q11 61 24.5 120t29.5 119q6 23 13 46t15 46q2 8 5 14.5t6 13.5q2 4 5 6.5t5 4.5q9 0 13 -10
q-2 -8 -5 -17.5t-5 -19.5q-11 -39 -20.5 -77.5t-19.5 -77.5q-1 -5 -0.5 -10.5t-0.5 -11.5h-2l-1 -2z" />
    <glyph glyph-name="H" unicode="H" horiz-adv-x="603" 
d="M1 82q13 11 27 17.5t28 11.5q28 11 55.5 20t55.5 19q5 2 10.5 4t11.5 4q4 15 7.5 29.5t7.5 28.5q15 58 30.5 115t30.5 114q2 8 5.5 15.5t9.5 14.5q6 2 10 1q1 0 7 -4v-25q-8 -9 -12 -20t-7 -22q-12 -45 -24.5 -88.5t-24.5 -88.5q-4 -13 -7 -25.5t-6 -25.5
q-1 -2 -0.5 -3.5t0.5 -3.5q2 -1 3 -2t3 -1q65 18 129.5 36t131.5 33q2 5 4 8.5t4 8.5l36 110l36 110q11 35 23 69t26 68q10 22 26 45q8 11 18 12q5 0 11 -3t8 -8q1 -2 0.5 -5t-0.5 -6q-5 -2 -8.5 -3t-7.5 -3q-15 -23 -24 -49l-114 -336q-1 -2 -1 -9q10 -1 19 2t19 4t19 3
t19 4q9 1 17.5 2t17.5 1q10 1 19.5 1t19.5 -2q2 -2 3.5 -4t3.5 -5q-8 -6 -10 -6q-11 -2 -23 -3t-23 -3q-28 -2 -54.5 -8t-53.5 -11q-5 -5 -7.5 -12t-4.5 -13q-20 -63 -41 -125.5t-41 -125.5q-2 -8 -5 -16l-6 -16q-6 -19 -20 -31q-8 -1 -12.5 0t-9.5 7q11 14 17 29.5t11 31.5
q18 57 36 112t36 111q2 8 4 14.5t4 14.5q1 2 0.5 3.5t-0.5 3.5q-2 1 -3 2t-3 0q-63 -14 -124.5 -32t-124.5 -35q-4 -1 -7 -2.5t-5 -3.5q-10 -35 -16.5 -68.5t-7.5 -51.5q3 -3 6.5 -6t7.5 -7q-3 -3 -5.5 -6t-4.5 -5q-14 0 -21 12q-5 30 2.5 59.5t12.5 60.5q-4 4 -10 3
q-32 -11 -65 -23t-65 -23q-8 -3 -17 -8q-4 -3 -7.5 -6t-6.5 -6q-8 4 -9.5 6.5t0.5 13.5z" />
    <glyph glyph-name="M" unicode="M" horiz-adv-x="603" 
d="M373 416q-15 -16 -29.5 -31t-28.5 -30q-17 -18 -33 -37t-33 -37q-44 -50 -85 -100.5t-79 -104.5q-8 -11 -17 -23t-17 -23t-18 -18q-12 -8 -25 -3.5t-14 19.5q-2 27 4 52q8 29 15.5 58.5t15.5 58.5q10 35 21 71t22 71q2 8 5.5 16.5t8.5 14.5q7 2 13 0t7 -7
q-23 -65 -40.5 -129.5t-34.5 -130.5q-5 -16 -7.5 -32t-4.5 -32q-1 -2 1 -6q4 -2 6 1t4 5q13 16 25 31.5t24 31.5q25 35 51 69t54 66l64 76t67 73q11 11 20.5 22t20.5 22q7 7 14 12.5t13 10.5q12 1 15 0t10 -8q3 -12 -1 -22q-2 -6 -4.5 -12.5t-5.5 -13.5q-17 -40 -33 -79.5
t-33 -80.5q-6 -13 -10 -31l8 4l30 33q42 48 87 92t91 88q16 16 33 30l34 28q13 12 30 4q2 -2 3.5 -5.5t3.5 -7.5q-2 -12 -6.5 -22.5t-9.5 -21.5q-19 -45 -38 -88.5t-37 -88.5q-24 -60 -44.5 -121t-38.5 -124q-4 -14 -7 -27.5t-2 -28.5q2 -4 4 -9l4 -10l-3.5 -3.5t-3.5 -1.5
q-7 -1 -11 2t-8 7q-10 12 -8 32q2 8 4 17l4 18q20 79 45 155.5t57 152.5q14 33 28.5 65.5t29.5 65.5q-3 3 -5 1.5t-4 -3.5q-19 -17 -37.5 -33.5t-36.5 -33.5l-65 -65t-65 -66l-28 -32l-28 -32q-6 -7 -12 -13.5t-12 -12.5h-8t-8 1l-3.5 7t-3.5 6q5 26 13.5 49t18.5 46
q27 69 57 138q2 4 3 7.5t-3 10.5z" />
    <glyph glyph-name="W" unicode="W" horiz-adv-x="499" 
d="M232 251q8 0 10 -0.5t9 -5.5q2 -4 2 -5q-1 -7 -1 -14t-2 -14q-7 -24 -11 -49t-7 -50q-6 -43 10 -87q5 -13 13 -23t23 -14q17 3 29 13t22 24q15 19 25.5 40t18.5 43q22 57 41.5 114.5t37.5 116.5q10 31 19 61t17 61q1 2 1 4t1 5q-3 5 -5.5 9t-5.5 9q2 11 6 19.5t15 13.5
q13 1 21 -12q2 -4 2 -7q2 -17 -1 -33t-7 -32q-11 -40 -21.5 -80t-21.5 -79q-11 -38 -22.5 -74.5t-25.5 -72.5q-17 -48 -40 -91q-8 -15 -18 -29t-23 -25q-18 -17 -40 -24q-33 -9 -59 14q-14 11 -22 26t-13 32q-4 14 -6 27.5t-1 27.5q1 10 1 19v19q0 4 -0.5 7.5t-1.5 8.5
q-3 -4 -4.5 -6.5t-3.5 -4.5q-20 -30 -39 -60.5t-39 -59.5q-9 -14 -19 -27t-21 -26q-16 -21 -40 -27q-26 4 -31 31q-4 15 -4 30t2 30q6 53 20 102.5t31 99.5q6 17 12.5 32.5t12.5 31.5q4 9 12 19q5 8 16 2q1 -3 2 -6.5t3 -8.5q-10 -9 -14.5 -20.5t-8.5 -22.5
q-14 -38 -26.5 -76.5t-21.5 -78.5q-7 -28 -12 -56.5t-3 -57.5q0 -5 0.5 -8.5t0.5 -8.5q1 -1 3 -5q5 -6 12 1q6 6 12.5 12t11.5 13q24 30 44.5 62t40.5 64t38.5 65t37.5 66z" />
    <glyph glyph-name="X" unicode="X" horiz-adv-x="520" 
d="M535 466q-46 -35 -87.5 -75t-82.5 -82q-50 -52 -98 -104q-12 -13 -23 -25.5t-23 -26.5q2 -8 5 -15q11 -24 26 -39q31 -37 79 -28q16 3 31 9q68 31 123 73q5 4 9 7t8 7q6 7 11 19q16 1 17 -16q-2 -3 -4 -7t-6 -8l-13.5 -13.5t-14.5 -12.5q-29 -21 -60 -39t-64 -32
q-42 -19 -86 -6q-35 13 -55 40l-12 18t-13 19q-15 -12 -27 -27.5t-24 -29.5q-13 -14 -25 -29l-24 -30l-45 -60q-11 -16 -20 -32.5t-23 -32.5q-2 1 -4.5 1h-4.5q-5 5 -5 9.5t2 9.5q5 10 10.5 19.5t11.5 18.5q19 32 41.5 61.5t45.5 58.5q17 21 33.5 41t33.5 40q6 6 9 12
q-5 21 -9 41.5t-9 40.5q-2 11 -4 22.5t-3 23.5q-2 26 -5 52t-1 52v8t1 8q1 7 2.5 12.5t2.5 11.5q13 7 20 -8v-77q0 -21 3 -41.5t6 -40.5t6 -39.5t11 -38.5q2 2 4 2t4 2q24 26 48 53t48 53q29 34 59.5 65t62.5 62q14 14 29 25.5t32 22.5q6 4 13 7t15 1q5 -1 7 -3t5 -10z" />
    <glyph glyph-name="Z" unicode="Z" horiz-adv-x="576" 
d="M334 169q-5 10 -12.5 16t-16.5 11q-8 4 -15.5 8t-15.5 9q-24 14 -33.5 39.5t0.5 56.5q7 23 18 44.5t22 42.5t23 42t22 44q6 16 5 32q0 2 -2 8q-11 5 -21.5 4t-21.5 -4q-20 -5 -38 -12.5t-36 -16.5q-34 -17 -66.5 -36t-63.5 -42q-9 -8 -18 -14.5t-18 -14.5
q-7 -6 -13 -12.5t-10 -15.5q2 -8 4 -12l-3 -5q-7 -2 -10 -1q-13 4 -14 17q2 9 7 16.5t12 14.5q15 17 31 31.5t34 27.5q42 29 85.5 53.5t91.5 42.5q11 4 23 7t25 2q9 0 14 -1q36 -10 36 -49q0 -14 -5 -32q-6 -20 -15 -37.5t-18 -35.5q-9 -16 -17.5 -32.5t-16.5 -33.5
q-8 -14 -13.5 -29t-7.5 -33q1 -21 26 -34q5 -3 10.5 -6.5t10.5 -5.5q22 -13 37 -29q6 -4 9 -7q4 2 7.5 4t7.5 4q32 22 64.5 42.5t65.5 39.5q18 10 35.5 18.5t36.5 15.5q15 6 29.5 9t30.5 1t26 -8q6 -5 2 -18q-2 0 -5 -0.5t-5 0.5q-21 7 -43 -1q-10 -4 -20 -7t-19 -8
q-20 -10 -39 -20t-38 -21q-29 -18 -57 -36.5t-57 -36.5q-3 -2 -5.5 -4t-5.5 -4q-1 -10 -1.5 -19t-2.5 -17q-3 -18 -11 -34t-18 -32q-15 -25 -32.5 -47.5t-36.5 -44.5q-14 -17 -29 -33.5t-31 -30.5q-14 -13 -28.5 -24.5t-29.5 -22.5q-24 -19 -52 -25q-15 -5 -29.5 -3.5
t-28.5 10.5q-16 10 -19 26q-5 28 8 51q8 13 16.5 25t19.5 23q20 20 40 38.5t42 35.5q41 31 81 60.5t82 57.5zM51 -141q13 -9 27 -4q22 6 40 18q13 10 25.5 19.5t23.5 20.5q48 43 91 96q15 18 29 37t26 39q5 8 8.5 16t8.5 16q1 2 1 5t-4 5q-3 -2 -6.5 -4.5t-6.5 -4.5
q-33 -24 -65.5 -48t-65.5 -49q-27 -21 -52 -44.5t-49 -49.5q-18 -20 -30 -45q-2 -5 -3 -10.5t2 -12.5z" />
    <glyph glyph-name="T" unicode="T" horiz-adv-x="265" 
d="M219 422q5 17 8.5 34.5t7.5 34.5q7 3 9 3t7 -5q2 -4 2 -6q-2 -10 -4.5 -19.5t-4.5 -20.5q-1 -4 -1 -14q0 -2 3 -6q6 -2 12.5 -1t13.5 2q22 2 43.5 5t43.5 5q26 2 51 4.5t51 4.5q25 2 49.5 1.5t49.5 -0.5q8 0 16 -2.5t15 -6.5q8 -4 2 -17q-1 0 -2 -0.5t-3 -0.5
q-28 7 -56 6t-56 -3q-4 -1 -7 -1.5t-7 -0.5q-24 -2 -48 -3.5t-48 -3.5q-18 -2 -35.5 -4.5t-35.5 -4.5q-6 -1 -12.5 -1t-12.5 -1q-19 0 -36 -8q-9 -32 -18 -65l-18 -66q-10 -34 -19 -67.5t-19 -67.5q-5 -17 -11 -47.5t-12 -64t-12 -63.5t-10 -46q-8 -4 -12.5 -2t-8.5 7
q-2 11 -2 23t2 25q2 15 5.5 44t6 61.5t4 61.5t0.5 44q-5 61 -38 113q-19 28 -46 44q-5 4 -10.5 7t-10.5 6q-8 12 -3 24q8 8 18.5 12.5t21.5 8.5q23 8 45.5 12.5t45.5 8.5q20 4 39.5 7t39.5 6q2 0 7 4zM135 124q8 28 15 53t14 49q11 38 22 76.5t22 76.5q3 6 -2 11
q-5 -1 -10.5 -0.5t-10.5 -0.5q-26 -5 -51.5 -10t-51.5 -10q-12 -2 -24 -5.5t-24 -7.5q-8 -2 -9 -9q3 -2 6.5 -4.5t6.5 -4.5q17 -11 30 -24.5t24 -30.5q14 -24 22.5 -50t13.5 -53q2 -14 3.5 -27t3.5 -29z" />
    <glyph glyph-name="B" unicode="B" horiz-adv-x="510" 
d="M136 -232q-3 3 -9 7q-4 6 -7 8q0 3 -2 9q-2 14 2.5 26t11.5 23q11 17 21.5 34t22.5 33q29 40 63 75t70 69q4 4 8 7t8 7q8 7 14.5 13t13.5 13q5 17 6 30q2 11 -1 19q-2 12 -8.5 16.5t-18.5 5.5h-28q-13 0 -23 11q-7 14 4 32l24 34t23 34q32 45 62.5 89.5t61.5 89.5
q9 14 17 27t14 30q-2 -1 -4 -1t-4 -1q-17 -11 -32 -23.5t-30 -26.5q-77 -72 -144 -153q-34 -41 -65 -83.5t-60 -87.5l-12 -20l-12 -20q-8 -15 -15 -30.5t-12 -32.5q-5 -15 -10 -30.5t-14 -29.5q-2 0 -5 -1t-5 0q-17 2 -15 16q1 3 1.5 6.5t1.5 6.5l10 26t11 25q13 30 22 60
q11 37 22.5 73.5t22.5 73.5q10 33 18.5 66t15.5 67q5 20 7 39.5t4 39.5q1 12 -5 23q-4 3 -10 -1q-7 -7 -13.5 -13t-11.5 -13q-54 -69 -93 -147q-7 -14 -12.5 -27.5t-11.5 -27.5q-5 -9 -6 -18q-1 -5 -1 -10v-10q-3 0 -4.5 -0.5t-3.5 -0.5q-5 1 -7 4t-4 8v5q7 39 26 78
q36 81 89 152q10 13 20.5 24t23.5 20q17 5 28 0q11 -6 14.5 -16t4.5 -21t0.5 -22t-2.5 -22q-8 -59 -23 -115t-32 -112q-1 -3 -1.5 -5.5t-0.5 -5.5q0 -1 1 -3q4 -1 5.5 2t3.5 5q17 23 33.5 46t33.5 45q44 54 90.5 104.5t98.5 96.5q21 19 48 37q13 10 27 14q10 4 19 -3t10 -18
q0 -14 -5 -24q-6 -11 -11.5 -23t-13.5 -23q-21 -33 -42.5 -65.5t-44.5 -65.5q-19 -28 -38 -55.5t-39 -55.5q-3 -5 -7 -9.5t-3 -12.5q5 -1 9.5 -1.5t9.5 -0.5q46 -4 52 -50q1 -5 1 -15q9 5 15.5 10t12.5 10q17 14 28 22.5t20.5 15.5t21 14t30.5 19q5 3 9.5 5.5t9.5 5.5
q9 -7 10.5 -9.5t3.5 -11.5q-2 -1 -6 -5q-18 -11 -28 -17t-18.5 -12t-17.5 -13.5t-25 -20.5q-14 -11 -28.5 -23.5t-28.5 -24.5q-16 -13 -23 -33q-32 -98 -92 -181q-17 -23 -36 -43.5t-42 -37.5q-8 -6 -16 -10.5t-17 -9.5q-13 -7 -32 -3zM326 23q-2 -1 -3.5 -2t-3.5 -2
q-24 -23 -46 -47t-44 -50q-17 -19 -32 -39t-29 -42q-6 -11 -11.5 -21.5t-7.5 -24.5q2 1 4 1t4 1q22 11 38 27q14 12 26 25t23 27q26 33 46 69.5t36 77.5z" />
    <glyph glyph-name="K" unicode="K" horiz-adv-x="427" 
d="M162 29q15 -13 47.5 1.5t70 41t73 57t56.5 48.5q5 3 9.5 5t8.5 4q16 0 15 -13q-4 -7 -10.5 -10.5t-13.5 -7.5q-33 -24 -60 -48.5t-52 -45.5t-50.5 -36.5t-54.5 -21.5q-19 -5 -39 3t-30 28q-5 10 -9 20t-7 21q-3 13 -5.5 26t-5.5 25q-2 5 -3.5 10.5t-4.5 10.5q-2 4 -6.5 6
t-11.5 0q-2 -2 -4 -5.5t-3 -7.5q-8 -29 -16.5 -59t-16.5 -60l-12 -46t-11 -46q-9 -8 -15 3q-3 13 2 29q7 28 13.5 55.5t14.5 56.5q1 3 1.5 6t-1.5 7q-3 -5 -6 -9t-5 -9q-11 0 -14 10v5q8 14 15 28l15 30q0 1 -0.5 3.5t-0.5 4.5q0 11 8 15.5t16 11.5q5 14 9 29t9 30
q11 37 22.5 73.5t23.5 73.5q2 9 6 17.5t9 17.5q4 8 10 14.5t17 9.5q6 -3 15 -6q2 -5 3.5 -8.5t3.5 -8.5q-2 -2 -3 -4t-3 -5q-4 2 -8 2.5t-9 2.5q-8 -11 -12.5 -23.5t-8.5 -24.5q-13 -37 -24.5 -73.5t-23.5 -72.5l2 -4q3 2 5.5 4t4.5 4q47 49 97.5 91.5t104.5 83.5
q37 28 73 54.5t73 53.5q13 9 25.5 17.5t25.5 16.5q11 7 21.5 12.5t24.5 8.5q3 -2 6.5 -3.5t7.5 -3.5q1 -2 1.5 -4.5t1.5 -4.5q-2 -2 -3 -3.5t-2 -1.5q-11 2 -19 -2.5t-16 -9.5q-19 -12 -37.5 -24t-35.5 -25q-45 -34 -89.5 -67t-88.5 -68q-48 -38 -91 -78t-85 -85
q-2 -2 -2.5 -3.5t-2.5 -3.5q1 -5 4.5 -6.5t6.5 -4.5q10 -9 15.5 -20.5t8.5 -25.5q2 -8 3 -17t3 -18q4 -14 8.5 -28.5t15.5 -25.5z" />
    <glyph glyph-name="R" unicode="R" horiz-adv-x="441" 
d="M61 116q5 3 6 4q44 82 104 159q29 36 59 70t63 65q14 13 29.5 25t30.5 24q19 16 41 10q8 -4 11.5 -11t4.5 -16q2 -20 -1 -39.5t-13 -37.5q-31 -59 -77 -111q-34 -39 -74.5 -69t-86.5 -54q-8 -5 -17 -8t-18 -7l-12 -6q0 -7 1 -10q5 -9 9 -18.5t9 -18.5q7 -13 17 -21
t25 -10q5 0 11 -2q4 1 7 1.5t7 0.5q15 1 29 6t28 12t35.5 22t44 32t43 32.5t33.5 24.5q5 4 11 7.5t11 7.5q3 2 6.5 3t6.5 3q12 4 15 -14l-8 -8t-9 -8q-14 -10 -36.5 -27t-46.5 -35.5t-47 -35t-38 -24.5q-8 -5 -17 -8.5t-18 -7.5q-14 -5 -28.5 -7t-28.5 -1q-45 1 -70 37
q-4 6 -7 12l-6 12q-7 13 -11 25q-5 2 -6 -0.5t-3 -4.5q-11 -25 -21.5 -49t-21.5 -49q-5 -11 -5.5 -21.5t5.5 -21.5q2 -2 1.5 -3.5t-0.5 -3.5q-5 -5 -9 -3t-9 3l-12 -9q-5 1 -6 3.5t-2 4.5q0 6 1 8q10 26 12.5 52.5t8.5 52.5q10 41 18 81t18 80q8 35 17 70.5t20 70.5
q5 14 10 28.5t10 28.5q3 9 6.5 18t7.5 18q9 2 11.5 0.5t8.5 -13.5q-2 -7 -4 -13.5t-4 -14.5q-23 -68 -41.5 -136.5t-35.5 -138.5q-2 -5 -1.5 -9.5t-0.5 -9.5q-6 -2 -2 -9q1 4 1 10zM105 136q7 2 11 2t7 2q41 19 78.5 42.5t69.5 55.5q60 55 100 127q12 23 18 46q3 9 3.5 17.5
t-0.5 17.5q-1 2 -2.5 4.5t-3.5 5.5q-5 -2 -8.5 -4t-6.5 -4q-9 -7 -17.5 -13.5t-16.5 -14.5q-46 -42 -87.5 -87t-78.5 -96q-34 -46 -66 -101z" />
    <glyph glyph-name="Y" unicode="Y" horiz-adv-x="494" 
d="M326 102q11 5 19 10q30 20 59.5 40t61.5 37q10 6 19.5 10.5t19.5 9.5q4 2 8 2.5t9 1.5q2 -2 4 -4.5t4 -4.5q-2 -5 -3 -6q-4 -3 -7.5 -6.5t-8.5 -5.5q-51 -27 -97.5 -59.5t-93.5 -65.5q-5 -3 -9.5 -6t-9.5 -8q-5 -11 -10.5 -22.5t-10.5 -23.5q-17 -38 -35.5 -74.5
t-41.5 -71.5q-20 -33 -45 -59q-26 -29 -59 -39q-16 -5 -31.5 -5t-30.5 8q-20 9 -21 30q-2 21 7 37q9 18 20 33.5t25 29.5q35 38 73 71.5t80 62.5q3 2 6 5t7 5q16 8 24.5 21t15.5 30q17 42 32 83.5t28 84.5l14 46t15 46q0 5 1 9q-6 -3 -8 -5q-21 -20 -42 -39.5t-43 -39.5
q-33 -29 -66.5 -57t-70.5 -53q-7 -6 -16 -11t-16 -8.5t-13.5 -6t-14 -4.5t-18.5 -4q-5 1 -11.5 2t-12.5 3q-16 10 -23 24.5t-9 32.5q-1 46 8 93q10 47 22.5 92.5t31.5 89.5q8 21 18.5 41.5t20.5 40.5q2 2 3.5 4t3.5 4q17 -3 14 -16q-2 -2 -2.5 -5t-2.5 -5q-26 -49 -43 -101
t-30 -106q-3 -13 -5 -25.5t-6 -25.5q-5 -16 -5 -32t-4 -33q-2 -11 0.5 -21t6.5 -20q1 -3 3.5 -5t4.5 -4q10 -5 18.5 -3t16.5 6q20 9 39 20.5t36 25.5q57 45 108.5 92.5t100.5 99.5q5 6 10 11l9 9q16 4 23 -4q11 -10 8 -22q-2 -11 -4 -20.5t-4 -20.5q-8 -33 -17.5 -66
t-20.5 -66l-33 -99q-2 -4 -3 -7.5t1 -8.5q-1 0 -1.5 -0.5t-1.5 -0.5zM229 -9q-2 -1 -3.5 -1t-3.5 -2q-36 -28 -69.5 -58t-64.5 -64q-9 -11 -17.5 -22.5t-16.5 -23.5q-6 -10 -9 -23q-4 -10 4 -15q18 -4 33.5 2t29.5 17q11 9 20 19t17 21q25 35 44.5 72t36.5 75q-1 0 -1 1v2z
" />
    <glyph glyph-name="Q" unicode="Q" horiz-adv-x="263" 
d="M306 -62q-1 -2 -2.5 -3.5l-3.5 -3.5q-8 2 -10 8t-7 11q-16 11 -33.5 15t-35.5 8q-17 3 -33 5.5t-33 4.5q-3 1 -6.5 1h-6.5q-23 -2 -45.5 -4.5t-44.5 -7.5q-5 -2 -9 -3.5t-9 -3.5q-4 -2 -7 -4.5t-6 -4.5q-11 4 -13 6.5t-1 13.5q8 12 21.5 16t25.5 11q-14 12 -19.5 27
t-6.5 32q-1 27 3 52.5t10 51.5q11 42 26.5 81t34.5 78q11 23 22.5 44t23.5 44q-1 4 -1.5 7.5t-2.5 8.5q7 20 13.5 39.5t26.5 33.5q26 7 45 -14q43 -47 34 -109q-8 -61 -26 -118t-43 -113q-8 -17 -16.5 -34t-18.5 -34q-9 -15 -19 -29t-23 -26q-3 -3 -5.5 -6t-6.5 -7
q4 -3 8 -3q4 -1 8 -1h8q34 -1 67 -7t65 -16q5 -2 10.5 -3.5t10.5 -3.5q13 -6 21.5 -15t9.5 -25zM51 25q8 -4 14 -3t12 5q17 10 27 23q10 14 19 27.5t17 27.5q35 68 59.5 139t35.5 146q5 41 -17 74q-1 2 -2.5 2.5t-3.5 2.5q-4 -2 -7.5 -4t-7.5 -5q-30 -46 -56.5 -94.5
t-47.5 -100.5q-16 -39 -29 -78.5t-18 -81.5q-3 -20 -3.5 -40t8.5 -40z" />
    <glyph glyph-name="E" unicode="E" horiz-adv-x="409" 
d="M473 587q2 -4 6 -8q-2 -2 -3 -4t-3 -4q-78 -11 -155 -21t-154 -26q-5 -5 -6 -11t-3 -12q-10 -52 -20.5 -103.5t-23.5 -103.5q-1 -3 -1 -6.5t3 -7.5q11 4 23 7t23 7q23 7 45 13t45 13q15 4 29 9.5t27 13.5q3 2 6 2.5t6 2.5q5 -5 6 -6.5t3 -8.5q-2 -2 -4.5 -3.5t-5.5 -3.5
q-17 -12 -36.5 -19t-39.5 -12l-111 -33q-7 -2 -13.5 -4.5t-13.5 -7.5q-2 -8 -4 -17l-4 -18q-12 -58 -24.5 -115t-23.5 -114q-2 -8 -2 -16.5t-1 -16.5q0 -2 0.5 -4.5t0.5 -4.5q6 -5 14 -1q9 4 17.5 8t17.5 9q45 26 89 51.5t88 54.5q13 9 33 24.5t40 33t38 34t28 28.5
q15 6 20 -6q-3 -14 -16 -26q-5 -5 -16.5 -16t-24.5 -23.5t-25 -23.5t-18 -15q-22 -16 -45 -31.5t-46 -30.5q-27 -17 -54.5 -34t-55.5 -34q-11 -7 -22.5 -13t-23.5 -12q-26 -13 -51 -6q-14 8 -17.5 21t-1.5 27q1 19 6 41q11 57 23 114t23 115v2q-11 0 -20.5 -4t-33.5 -18
q-13 5 -9 18q14 12 31.5 19.5t36.5 15.5l4 8t3 9q8 29 14.5 58.5t13.5 58.5q5 26 11 50.5t11 49.5v5q-4 5 -9.5 4t-11.5 3q-1 1 -5 7q2 8 7 12t11 6q8 2 14.5 6t11.5 12q5 -2 10 -2.5t11 -2.5q14 2 28.5 4.5t29.5 4.5l54 8t55 7q17 2 32.5 4t32.5 4q15 2 29.5 3t28.5 2
q4 1 8.5 0.5t9.5 -0.5z" />
    <glyph glyph-name="N" unicode="N" horiz-adv-x="423" 
d="M280 -49q2 -9 -0.5 -15.5t-7.5 -11.5q-5 -6 -12.5 -6.5t-12.5 3.5q-12 11 -9 25q2 11 4.5 20.5t4.5 19.5q11 39 24 76.5t27 75.5q29 80 62 158.5t65 157.5q3 8 5.5 15t5.5 15q-3 0 -5 0.5t-4 -1.5q-8 -7 -17 -13t-17 -14q-26 -25 -52.5 -49t-51.5 -50q-50 -52 -97 -105.5
t-89 -112.5q-15 -20 -29 -40.5t-28 -40.5q-5 -6 -9.5 -12t-9.5 -12q-5 0 -8.5 -0.5t-7.5 -0.5q-5 5 -6 7q-5 5 -5.5 11.5t1.5 12.5q4 20 8 41.5t10 41.5q14 48 28.5 96t29.5 96l4 12t7 11q2 -1 3.5 -0.5t2.5 -1.5q5 -3 5 -9q0 -4 -1 -8l-2 -8q-14 -48 -27.5 -95t-27.5 -95
q-8 -26 -12 -51q-2 -4 -2.5 -8t4.5 -8q3 4 6 7t6 8q27 43 58.5 83t63.5 79q14 17 28 32l28 30q21 23 42 45.5t43 44.5q25 23 49.5 46.5t50.5 44.5q9 7 18 13t20 8q13 -8 16.5 -13.5t1.5 -16.5q-1 -7 -3 -13.5t-4 -13.5q-11 -31 -22.5 -61.5t-23.5 -61.5q-22 -55 -43.5 -109
t-43.5 -109q-13 -34 -25.5 -68t-23.5 -69q-2 -10 -4 -17q2 -4 5 -7.5t6 -8.5z" />
    <glyph glyph-name="C" unicode="C" horiz-adv-x="367" 
d="M36 -74q11 -3 20 -1t17 7q37 18 71 48q33 27 64.5 56t62.5 58q23 22 45 43.5t44 42.5q3 3 7 5q12 3 16 -6q0 -4 -1 -5q-4 -5 -7.5 -9.5t-8.5 -8.5q-34 -33 -67 -66.5t-67 -65.5q-25 -23 -49.5 -45.5t-52.5 -42.5q-20 -13 -40 -23t-43 -14q-1 1 -5 1q-24 4 -33 20t-9 36
q0 21 4 41t9 40q11 38 24.5 73.5t29.5 70.5q21 47 46 91t55 86q39 54 89 98q7 7 14.5 12.5t15.5 11.5q9 5 18 9.5t20 7.5q23 6 40.5 -8t13.5 -41q-1 -11 -4.5 -21t-8.5 -21q-3 -6 -5.5 -12t-5.5 -14q-10 -7 -19 4l3 12l15 39q7 16 4 33q-6 12 -17 10q-9 0 -16 -3
q-11 -5 -22 -11q-37 -26 -66 -58q-57 -63 -96.5 -134t-70.5 -149q-10 -25 -18 -50.5t-16 -51.5q-5 -18 -7.5 -36t-1.5 -37q1 -6 2 -11.5t7 -10.5z" />
    <glyph glyph-name="L" unicode="L" horiz-adv-x="335" 
d="M358 172q-8 -2 -20.5 -8.5t-26 -14.5t-25.5 -15.5t-18 -11.5q-35 -23 -69.5 -47t-69.5 -47q-20 -14 -39.5 -26t-39.5 -25q-8 -5 -17 -8.5t-20 -0.5q-10 5 -17 13t-4 19q6 22 14.5 43t16.5 42q21 49 42 97.5t43 96.5q10 24 26 57.5t33 69t33.5 69t27.5 57.5q2 6 5 11.5
t10 8.5q2 -1 8.5 -1t8.5 -1q2 -2 2.5 -3.5t2.5 -2.5q-1 -2 -0.5 -3.5t-0.5 -2.5q-9 -20 -18 -39l-18 -38q-12 -27 -29 -63.5t-35 -75t-34.5 -75.5t-28.5 -64l-32 -76l-32 -76q-3 -7 -5.5 -14t-4.5 -14q-1 -3 -0.5 -5.5t0.5 -7.5q11 6 20 11t17 11q34 23 67.5 45.5t67.5 45.5
q20 13 39.5 25t39.5 24q3 2 11 7t17 10t17.5 9.5t11.5 5.5q4 2 8 1.5t8 -0.5q6 -1 7 -13z" />
    <glyph glyph-name="J" unicode="J" horiz-adv-x="426" 
d="M41 302q-6 2 -7.5 5t-1.5 7q2 2 2.5 3.5t2.5 2.5q14 8 26.5 15t26.5 15q42 24 82 50.5t81 52.5q18 13 35 23q6 4 13 7t12 5q14 0 22 -7t13 -18q10 -25 10 -45q1 -25 0.5 -49t-3.5 -48q-6 -46 -17.5 -90t-25.5 -89q-2 -4 -3 -7.5t3 -7.5q15 9 30 18.5t31 18.5
q8 5 17.5 9.5t18.5 9.5q10 4 19 3t17 -9q2 -8 1.5 -10t-3.5 -8q-2 1 -3.5 1t-3.5 1q-2 2 -3.5 3t-3.5 2q-4 0 -5 -1q-5 -2 -9 -3.5t-9 -3.5q-30 -17 -58.5 -36t-57.5 -39q-5 -14 -11 -27l-12 -26q-31 -75 -74 -141q-14 -22 -30 -41.5t-37 -35.5q-25 -19 -54 -26
q-20 -5 -38 1q-20 8 -29 24t-2 37q3 9 7 18t9 17q16 26 39 49q22 23 46 43.5t50 39.5t52 37.5t53 38.5q2 3 4 8l4 10q18 47 32.5 94.5t24.5 97.5q3 16 5.5 32t2.5 33v9q4 16 2 31.5t-3 31.5q0 14 -9 24q-3 -2 -6 -2.5t-6 -2.5q-17 -10 -33 -19.5t-32 -20.5q-43 -27 -86 -53
t-88 -49q-7 -4 -14.5 -7.5t-15.5 -5.5zM238 42q-3 -1 -6 -1t-5 -2q-32 -24 -64.5 -48.5t-62.5 -51.5q-34 -30 -61 -71q-6 -8 -9.5 -16.5t-5.5 -18.5q-3 -11 3 -19t18 -8q11 0 22 3q25 7 45 26q11 11 21 22t19 24q25 35 45 72t37 77q2 3 2 6t1 7l2 1q-1 -1 -1 -2z" />
    <glyph glyph-name="G" unicode="G" horiz-adv-x="459" 
d="M307 341q-3 -2 -5.5 -3t-4.5 -3q-15 -15 -30.5 -30t-29.5 -31q-33 -36 -67 -70t-70 -66q-12 -11 -25 -19.5t-29 -13.5q-6 -2 -12 -2t-12 3q-21 7 -21 30q-1 16 2 38q4 18 10.5 35.5t14.5 34.5q26 56 59 106t78 92q12 12 30 25q14 11 30.5 17.5t34.5 8.5q18 -2 29 -11.5
t14 -30.5q-1 -2 -2.5 -3.5l-3.5 -3.5q-4 3 -5.5 4t-3.5 3l-4 8t-4 9q-1 1 -2 1.5t-3 2.5q-18 4 -37 -5q-25 -12 -47 -32q-32 -29 -57.5 -62t-46.5 -70q-15 -26 -28 -52t-23 -54q-8 -23 -12 -45q-1 -5 -0.5 -9.5t1.5 -9.5q0 -2 1.5 -4t3.5 -4q9 2 16.5 6t15.5 9
q9 7 18.5 14.5t17.5 15.5q41 38 80 78t76 82q21 22 43 43h24q9 -6 12 -14t4 -17q2 -17 -1 -34t-7 -34q-10 -51 -22 -99.5t-29 -97.5q-1 -2 -0.5 -5t-0.5 -8q12 10 22 18.5t20 16.5q22 17 43 34.5t44 34.5q9 7 19 12.5t20 11.5q7 4 13.5 5t13.5 1q21 -2 20 -23q0 -4 -2 -8
q-1 -1 -1.5 -2t-2.5 -2t-4 -1.5t-5 -2.5q-3 4 -6 7t-7 8q-4 0 -6 -1q-14 -9 -27 -17.5t-26 -18.5q-36 -29 -71 -58.5t-69 -61.5l-3.5 -3.5l-2.5 -2.5q-13 -34 -24.5 -66.5t-24.5 -64.5q-12 -32 -26.5 -62t-33.5 -58q-14 -22 -31.5 -40t-39.5 -32q-14 -9 -28 -13.5t-32 -0.5
q-4 4 -8.5 8t-8.5 8q-4 17 -1 32t9 29q11 25 24 47t29 44q33 45 70 85t78 78q12 10 18 27q17 52 33 104t29 106q5 23 9 45l8 44q1 2 0 4.5t-1 5.5zM30 -300q2 0 3.5 -0.5t3.5 -0.5q5 0 10 3q17 10 29 21q14 12 25.5 25.5t20.5 28.5q25 40 43 82t34 86l-2 7q-3 -2 -7 -6
q-27 -29 -53 -58t-49 -61q-14 -19 -25.5 -38t-21.5 -40q-8 -17 -12 -33q-1 -6 1 -16z" />
    <glyph glyph-name="U" unicode="U" horiz-adv-x="370" 
d="M334 365q-5 0 -8 -3.5t-5 -7.5q-17 -22 -33 -44.5t-33 -44.5q-27 -38 -53.5 -73.5t-53.5 -70.5q-24 -36 -55 -64q-11 -9 -20.5 -16t-20.5 -12q-27 -10 -42 19q-8 14 -10 36q-1 40 8 81q6 24 16 57.5t22 68.5t24.5 67.5t22.5 55.5q4 9 7.5 17.5t11.5 13.5q11 3 13 1t4 -17
q-11 -11 -17 -24.5t-11 -27.5q-6 -18 -16 -45.5t-20.5 -57.5t-19.5 -58t-13 -47q-5 -23 -8 -46t-1 -48q1 -5 2.5 -11.5t6.5 -11.5q10 -4 21 4q9 7 18.5 13.5t17.5 15.5q18 22 36 43.5t36 44.5q19 26 37 51t37 51q23 31 44.5 62t42.5 62q14 20 27.5 39.5t27.5 39.5q3 5 7 9
t7 9q16 4 20 -12q-1 -8 -4 -16l-6 -16q-24 -54 -43 -110.5t-36 -113.5q-13 -43 -20 -64.5t-11.5 -38.5t-9.5 -39.5t-14 -66.5q-5 -19 -7.5 -38t-6.5 -38q-1 -6 0.5 -12.5t2.5 -13.5q-2 -1 -3 -2.5t-3 -3.5q-12 1 -18 14q-1 2 -1 3t-1 3q-2 20 0.5 39.5t6.5 39.5
q7 34 11.5 57.5t8.5 41.5t8 34t9.5 34t12.5 41t18 56q6 20 12.5 38.5t13.5 37.5q1 5 1.5 8.5t1.5 8.5q1 1 2.5 1t-0.5 2q-1 -1 -1 -2t-1 -3z" />
    <glyph glyph-name="P" unicode="P" horiz-adv-x="323" 
d="M109 129q-34 -53 -61 -111q-5 -9 -7.5 -19t-4.5 -20q-2 -14 -4 -28.5t0 -29.5q-2 -1 -5 -1.5t-5 -2.5q-6 5 -11 9.5t-10 9.5q-3 16 2 30q3 9 5.5 17.5t6.5 16.5q5 11 7.5 21t4.5 21q7 31 12.5 61t12.5 60q14 64 31.5 126.5t37.5 125.5q2 7 3 13.5t3 13.5q1 5 3 9t8 8
q5 -3 10 -5q3 -9 2 -17.5t-3 -16.5q-8 -26 -15 -51.5t-15 -51.5q-11 -41 -22 -81l-22 -80v-8q5 -6 12 -2q5 2 8.5 6.5t6.5 9.5q21 32 42.5 63t44.5 61q19 24 38 47.5t39 46.5q12 13 24.5 25.5t26.5 24.5q7 5 13.5 9.5t13.5 9.5t14 8q39 13 47 -28q2 -14 -0.5 -27t-7.5 -27
q-20 -47 -54 -86q-26 -29 -54.5 -53t-61.5 -43q-29 -16 -57.5 -31.5t-58.5 -32.5zM144 178q3 1 6.5 1.5t6.5 2.5q26 15 49 29q40 23 73 54t60 68q16 21 27.5 44t13.5 51q-4 6 -7 9q-3 -2 -6.5 -3t-5.5 -3q-21 -13 -38.5 -29t-33.5 -34q-31 -35 -59.5 -70t-54.5 -72
q-8 -11 -17 -22.5t-14 -25.5l-2 -2z" />
    <glyph glyph-name="V" unicode="V" horiz-adv-x="316" 
d="M51 337q5 -1 9 -1h8q2 -5 3 -8.5t1 -7.5q1 -14 -2.5 -27t-6.5 -27q-8 -35 -14.5 -70t-11.5 -70q-3 -23 -4 -44.5t-1 -43.5q0 -17 8 -35q1 -2 3 -4l4 -4q19 5 33 15.5t27 23.5q21 20 38.5 43t32.5 48q20 32 37 67t31 71q20 48 37.5 96t32.5 98q13 43 24 87q1 3 1 6.5v5.5
q-2 6 -7.5 9t-0.5 10q3 3 4 3q16 4 26 -14q2 -11 1 -22t-3 -23q-9 -38 -20 -75t-25 -75q-16 -46 -32.5 -91.5t-36.5 -90.5q-17 -39 -38.5 -75t-48.5 -69q-21 -25 -50 -51q-7 -6 -15.5 -10.5t-16.5 -9.5q-24 -11 -44 -1.5t-28 35.5q-4 15 -6 32q0 18 0.5 36t2.5 36q3 27 8 54
t11 54q2 14 5.5 26.5t6.5 26.5q2 11 5 23t5 23q2 5 3.5 9.5z" />
    <glyph glyph-name="F" unicode="F" horiz-adv-x="332" 
d="M169 462q-15 1 -40.5 -10.5t-51.5 -31.5q-7 2 -8.5 3t-5.5 7q0 3 2 5q8 12 19.5 20.5t25.5 14.5q14 7 29 13t29 11q15 7 28 11l63 9q15 2 29.5 4.5t29.5 4.5q20 2 40 3t40 3q14 1 26.5 -1t25.5 -4q15 -2 26 -14q2 -2 2.5 -3.5t1.5 -3.5q1 -3 1 -8q-4 -7 -12 -3
q-3 2 -5.5 4.5t-5.5 4.5q-17 4 -34 5.5t-34 -2.5q-5 -2 -11 -1.5t-11 0.5q-17 -2 -35 -4.5t-36 -4.5q-20 -3 -39 -6.5t-39 -7.5q-6 -1 -12 -5q-5 -9 -12.5 -36t-16 -61.5t-16 -70.5t-11.5 -64q3 -3 4 -2q5 1 9.5 1.5t9.5 2.5q17 4 20 4.5l3 0.5l3.5 1t20.5 5q12 3 25 4.5
t26 3.5q4 1 8 1h9q24 -2 30 -24q-1 -2 -2 -3t-2 -3q-4 -2 -5 -1q-11 4 -21 3.5t-20 -2.5q-27 -7 -40 -10.5t-23 -7t-23 -8l-39 -13.5l-3 -3q-2 -6 -3.5 -13t-3.5 -15q-6 -35 -11.5 -69t-11.5 -69q-3 -23 -5.5 -45t-6.5 -45t-7 -45t-5 -45v-22l-6 -6q-8 4 -11 6q-3 3 -3 6
q-2 17 -1.5 33t2.5 33q2 16 4.5 31t4.5 31q4 25 6.5 49.5t6.5 48.5q5 31 10 61.5t10 60.5q-4 5 -8 4.5t-8 -2.5q-19 -5 -37 -11t-37 -12q-2 -1 -4.5 -1.5t-4.5 -1.5q-12 5 -11 16q2 5 6 9t9 6q12 6 24.5 12t25.5 12q12 5 24 9.5t26 9.5q2 3 3.5 6t2.5 7q9 56 21.5 109.5
t27.5 107.5q1 1 -1 3z" />
    <glyph glyph-name="S" unicode="S" horiz-adv-x="305" 
d="M285 463q6 -19 -4 -40q-5 -10 -9.5 -20t-9.5 -20q-2 -3 -3 -5l-2 -4q-10 -4 -14 4q0 2 -0.5 3.5t-0.5 2.5q3 8 6.5 15t6.5 15l12 33q-6 6 -13 1q-11 -8 -22.5 -16t-22.5 -18q-51 -46 -85 -104q-6 -9 -9.5 -18t-6.5 -18q-2 -5 -2 -10.5v-9.5q5 -10 11 -15.5t13 -9.5
q6 -5 12.5 -8.5t11.5 -6.5q14 -9 25.5 -19.5t19.5 -24.5l3 -3l3 -3q3 2 5 3t5 3q19 14 37 27t37 25q8 5 15.5 9t15.5 8q20 7 34 -11q1 -2 1 -5.5t1 -6.5q-3 -1 -5 -6q-5 2 -9.5 3.5t-9.5 3.5q-10 0 -41 -21.5t-79 -59.5q-1 -4 -1 -7.5t-1 -7.5q-1 -18 -6 -34.5t-13 -32.5
q-17 -35 -38.5 -67.5t-50.5 -58.5q-19 -18 -45 -30q-8 -2 -15 -3t-15 1q-8 3 -12.5 6.5t-12.5 14.5q-4 17 0 31t12 28q16 29 35 48q23 27 49 50.5t54 46.5q8 6 15.5 12.5t14.5 14.5q0 11 -4.5 18t-11.5 13q-9 8 -18.5 13.5t-19.5 12.5q-12 7 -24 17q-14 12 -20 28.5t4 41.5
q8 22 19 40q25 35 54 66t63 57q6 5 13 9l14 8q10 3 19 2.5t15 -11.5zM26 -82q7 1 11 0.5t9 1.5q9 5 17.5 10t15.5 13q12 11 22.5 23t20.5 26q36 48 58 103q1 3 1.5 6t-3.5 7q-14 -11 -26.5 -21.5t-25.5 -21.5q-23 -20 -42.5 -41.5t-36.5 -45.5q-7 -9 -11 -18.5t-9 -20.5
q-2 -4 -1.5 -8.5t0.5 -12.5z" />
    <glyph glyph-name="O" unicode="O" horiz-adv-x="301" 
d="M182 490q5 -2 10.5 -2.5t13.5 -2.5q15 6 34 -4q9 -5 15 -13t10 -17q7 -18 11 -36t3 -36q-1 -44 -5 -86.5t-14 -84.5q-9 -36 -24 -68.5t-35 -63.5q-26 -41 -62 -74q-13 -15 -31 -26q-15 -9 -31.5 -13.5t-37.5 0.5q-31 14 -34 49q-4 22 -3.5 42.5t4.5 40.5q14 63 36 119
q21 58 46 114.5t56 111.5q5 9 10.5 18t13.5 18q2 4 5.5 7t8.5 7zM34 -9q6 -9 12 -11t13 0q16 4 29 13q26 16 44.5 36t34.5 43q28 40 47.5 83.5t28.5 92.5q3 20 6 39t4 39q6 47 -2 98q-2 11 -5.5 21t-11.5 18q-19 8 -28 -9q-3 -3 -4.5 -7t-7.5 -4q-3 2 -7.5 4.5t-9.5 4.5
q-8 -13 -14.5 -24.5t-11.5 -24.5q-26 -50 -48.5 -101t-41.5 -104q-10 -27 -18 -54t-13 -56q-2 -17 -3 -34.5t-1 -34.5q3 -14 8 -28z" />
    <glyph glyph-name="I" unicode="I" horiz-adv-x="258" 
d="M268 566q-5 -20 -9.5 -39t-8.5 -39q-9 -40 -17.5 -79.5t-17.5 -79.5q-12 -52 -24.5 -104t-24.5 -104q-7 -29 -13.5 -57.5t-12.5 -57.5q-1 -5 -1.5 -8.5t1.5 -7.5q2 -3 5 -2.5t5 1.5q11 5 14.5 6.5t14.5 6.5q3 1 6.5 2t6.5 1q5 1 9 0.5t10 -0.5q2 -1 6 -5q-2 -7 -3 -7
q-6 -4 -12 -7l-12 -6q-38 -15 -73.5 -34t-69.5 -41q-9 -6 -16.5 -12.5t-15.5 -13.5q-8 -2 -10.5 2t-4.5 10q3 12 11.5 20t18.5 15q11 8 22 14t23 13q6 4 12.5 7t11.5 10q5 22 9.5 43t9.5 43q9 40 17.5 79t17.5 79q11 48 21.5 94t21.5 93q8 35 16.5 70t16.5 70q1 3 0.5 6
t-0.5 8q-12 -1 -22 -4t-21 -5q-42 -11 -81 -27q-11 -5 -20 -9.5t-17 -13.5q-8 3 -9 5t-1 13q4 7 9.5 10.5t11.5 7.5q14 8 29.5 14t31.5 11l48 12t49 13l12 18q8 2 10.5 -2.5t5.5 -6.5q4 -2 6 -2l12 2l12 2q26 5 52.5 9t53.5 5h11.5t10.5 -1q14 0 24 -12q7 -8 -1 -16
q-5 2 -10.5 5t-13.5 6q-42 -3 -77 -7t-77 -16z" />
    <glyph glyph-name="registered" unicode="&#xae;" horiz-adv-x="448" 
d="M211 498q9 17 24.5 25.5t32.5 12.5q16 4 29.5 -1t24.5 -15q9 -8 17.5 -16.5t16.5 -19.5q19 -28 29 -59q6 -15 6 -32q4 -56 -22 -109q-22 -46 -54 -83t-74 -66q-23 -17 -47.5 -30.5t-52.5 -20.5q-11 -3 -22 -5l-22 -4q-8 2 -14 2.5t-12 1.5q-26 3 -50 24.5t-28 57.5
q-3 38 9 76q11 36 29 68.5t40 62.5q11 15 22.5 29.5t23.5 28.5q20 22 43.5 40t50.5 32zM278 495q-14 -1 -26 -2.5t-23 -6.5q-29 -14 -56 -36q-92 -81 -142 -197q-19 -41 -17 -91q1 -22 16 -39t32 -22q26 -8 52 -2q23 5 44.5 14t41.5 21q32 20 59 45t50 55q25 32 43 70
q22 48 17 102q-1 4 -1 7.5t-2 6.5q-5 11 -9.5 22.5t-10.5 22.5q-9 16 -20.5 29t-29.5 21q-7 2 -14 2t-15 -3q2 -5 7.5 -7.5t3.5 -11.5zM100 146q-2 8 -1.5 14.5t2.5 13.5q9 35 21 68.5t23 67.5q3 8 5.5 17.5t5.5 20.5q14 22 30 49q11 2 13.5 1t8.5 -9q-4 -7 -12 -19
q8 -5 16 -9.5t12 -14.5q4 -14 -2 -26t-15 -23q-5 -7 -11.5 -13t-12.5 -13q2 -5 6.5 -4.5t7.5 -1.5t6.5 -2t7.5 -1q8 -2 17 -4.5t17 -5.5q8 -4 17 -13q7 -8 -4 -15q-4 1 -14 5q-12 5 -23.5 8t-24.5 3q-5 0 -10.5 1.5t-10.5 2.5q-12 3 -19 16q-2 -2 -4 -2.5t-3 -2.5
q-9 -24 -17 -48t-14 -49q-1 -5 -1 -17q-1 -1 -2.5 -2t-3.5 -3q-3 3 -6 5.5t-5 4.5zM163 281q5 5 10.5 10t10.5 11q5 7 9 14.5t9 15.5q3 7 -3 13q-3 0 -6.5 -0.5t-8.5 -0.5q-15 -31 -21 -63z" />
    <glyph glyph-name="germandbls" unicode="&#xdf;" horiz-adv-x="371" 
d="M344 498q-6 -1 -10.5 -1t-7.5 -2q-5 -3 -9.5 -7t-9.5 -8q-14 -13 -25.5 -27.5t-22.5 -29.5q-38 -57 -70.5 -115t-60.5 -121q-19 -43 -36 -86.5t-31 -88.5q-11 -38 -21 -75.5t-20 -75.5q-1 -3 -1 -6.5t-1 -5.5q-6 -11 -17 -7q-8 6 -8.5 13.5t1.5 16.5q4 17 7 34.5t8 34.5
q8 35 17 68.5t20 66.5q35 100 81 192t107 178q21 30 46 55q7 6 14 11t16 9q10 4 15 5q24 2 37 -12.5t8 -37.5q-7 -39 -29 -74q-14 -21 -27.5 -41.5t-27.5 -40.5q-6 -10 -13 -19.5t-13 -19.5q-2 -2 -2.5 -5t-1.5 -5q2 -2 4 -3l4 -2q4 -2 7.5 -2t8.5 -2q24 -8 38.5 -27
t15.5 -45q2 -45 -15 -81t-56 -62q-36 -25 -74 -41q-9 -5 -18 -6.5t-19 2.5q-4 4 -5.5 8t1.5 10q29 11 57 26t51 37q25 23 39 51t12 63q-1 18 -8.5 27.5t-24.5 14.5q-5 2 -11 2.5t-11 2.5q-17 5 -22.5 18.5t2.5 29.5q6 10 14 20q15 23 30.5 44.5t29.5 44.5q13 20 23 40t15 43
v14z" />
    <glyph glyph-name="ampersand" unicode="&#x26;" horiz-adv-x="439" 
d="M144 -183q-14 5 -17 17q-4 20 -5 39.5t2 39.5q4 20 6.5 41t6.5 41q1 4 0.5 7.5t-0.5 7.5q-4 4 -11 2q-14 -2 -28.5 -2t-28.5 3q-5 1 -11 1t-11 1q-6 2 -12.5 3t-11.5 3q-27 14 -30 43q-2 16 3 30t14 27q17 26 44 48q56 47 121 82l9 6q5 8 5.5 10.5t0.5 10.5l-16 4l-16 4
q-7 2 -14 4.5t-14 4.5q-5 2 -9 4t-9 4q-19 13 -23 31t11 38q24 31 63 53q11 6 22.5 12t24.5 10q5 2 9.5 4t9.5 4q11 52 24 102.5t30 99.5q6 6 14 2q6 -5 5 -12q0 -5 -2 -13q-10 -38 -19.5 -76t-19.5 -76q-1 -5 -1.5 -10.5t-1.5 -11.5q11 -4 21 -9.5t12 -19.5
q-2 -9 -5.5 -18.5t-12.5 -16.5q-9 -1 -11 7q0 8 4.5 14t2.5 14q-4 5 -8 4t-9 -2q-6 -17 -8.5 -33.5t-6.5 -33.5t-7 -34t-7 -34q3 -4 6 -8.5t8 -9.5v-22q-5 -9 -12 -14.5t-14 -10.5q-3 -10 -9 -36t-12 -55t-10.5 -54.5t-4.5 -35.5q7 -2 13.5 -0.5t12.5 3.5q28 7 54 16t51 24
q35 22 62 55q2 2 3.5 4t3.5 5h14q2 -5 6 -13q-8 -20 -21.5 -35.5t-30.5 -27.5q-29 -22 -60.5 -35.5t-66.5 -21.5q-12 -3 -24 -5.5t-25 -5.5q-2 -8 -4 -14.5t-4 -14.5q-3 -23 -7 -45t-7 -45q-2 -13 -2 -26t3 -26q1 -5 1.5 -9.5t0.5 -9.5q0 -2 -4 -8zM146 48q5 23 9 44.5
t9 41.5q3 16 6 31.5t6 30.5q1 3 1 6.5t-5 6.5q-8 -2 -14.5 -7t-13.5 -9q-24 -16 -46 -34t-42 -40q-9 -10 -16 -20.5t-11 -23.5q-2 -5 -1.5 -9t-0.5 -9q9 -10 19.5 -9t20.5 -4q20 0 39.5 -1t39.5 5zM197 307q2 5 3 9.5t3 9.5q5 21 8.5 42t8.5 41q0 4 0.5 7t-4.5 6
q-23 -10 -44 -23.5t-39 -32.5q-7 -7 -11.5 -14t-6.5 -18q3 -2 5.5 -5t6.5 -5q17 -7 33.5 -11.5t36.5 -5.5z" />
    <glyph glyph-name="numbersign" unicode="#" horiz-adv-x="371" 
d="M94 22q-9 -2 -12.5 0.5t-5.5 6.5q1 2 1 3.5t1 3.5q24 40 48.5 79.5t50.5 78.5l6 8t1 11q-17 2 -32.5 -2.5t-31.5 -4.5q-6 -6 -10 -11t-9 -13t-12 -21.5t-20 -37.5q-11 -20 -20 -41.5t-17 -42.5q-8 -4 -11.5 -1.5t-5.5 8.5q2 14 6.5 28t11.5 28q8 17 16.5 33.5t16.5 33.5
q4 6 7 12l6 12q-4 5 -8 4t-7 -2q-11 -2 -21.5 -3.5t-20.5 -3.5q-10 6 -6 16q18 10 39 13t43 9q10 14 18 30t18 32q-12 4 -22.5 0t-21.5 -4q-11 1 -22 -1t-22 -3q-11 -2 -21.5 -3t-21.5 -2q-6 3 -9 7t0 12q4 2 7.5 3.5t8.5 2.5q27 4 53.5 8t53.5 5q8 0 16.5 1t17.5 6
q10 12 18 26.5t17 29.5q14 22 26.5 43.5t25.5 43.5q3 5 5.5 8.5t5.5 7.5q7 9 15 2t3 -17q-7 -13 -13 -25t-14 -24q-11 -20 -23 -38.5t-24 -38.5q-2 -4 -5 -8t-1 -10q18 -3 35.5 -0.5t36.5 4.5q6 9 12.5 18.5t13.5 19.5q7 11 14 20.5t14 19.5q9 12 20 15q3 2 6.5 1.5
t6.5 -1.5t9 -7q-5 -8 -12 -13.5t-12 -12.5q-5 -8 -9.5 -14t-9.5 -14q-5 -7 -10 -15t-11 -16q16 -2 30.5 -3t29.5 -7q2 -3 4.5 -7t4.5 -8q-2 -3 -3 -5.5t-3 -5.5q-5 3 -9.5 5.5t-9.5 5.5q-14 2 -28.5 1.5t-30.5 -0.5q-9 -14 -17 -26.5t-17 -26.5q8 -2 11 -2l20 2t21 2
q6 1 12 1h13q13 0 22 -9q3 -3 4.5 -6.5t-3.5 -8.5q-5 0 -11 1t-12 1q-6 1 -12 0.5t-12 -0.5q-7 -1 -13 -2l-12 -2t-12 -1t-13 -1q-10 -1 -23 -5q-33 -50 -64 -99t-64 -97zM169 293q-16 -20 -24 -34.5t-11 -27.5q19 2 37 5t37 5q8 13 15 25t15 25q1 1 0 2t-1 3
q-5 0 -10.5 0.5t-10.5 -0.5q-12 0 -23.5 -0.5t-23.5 -2.5z" />
    <glyph glyph-name="Thorn" unicode="&#xde;" horiz-adv-x="390" 
d="M86 170q5 -1 6 2t3 6q20 35 42 68t47 65q24 29 49.5 57t55.5 52q19 15 33.5 22.5t37.5 13.5q13 -2 21 -8.5t12 -20.5q2 -6 1.5 -12t-1.5 -12q-4 -18 -10 -35.5t-14 -34.5q-24 -54 -55.5 -102t-72.5 -90q-52 -52 -114 -86q-18 -11 -36.5 -19.5t-38.5 -19.5q-5 -6 -4.5 -14
t-1.5 -16q-5 -5 -8 -9q-8 -38 -16.5 -76t-13.5 -77q-6 -2 -8 -1q-2 2 -4.5 4t-2.5 4q0 8 -0.5 16t1.5 16q7 38 14.5 75t15.5 75q-4 7 -12 12t-7 17q5 20 29 23q7 16 10 32.5t8 33.5q7 28 13.5 56t12.5 56q7 30 17.5 73t22 88.5t23 88.5t20.5 72q4 14 8 27.5t9 27.5
q3 10 13 13q12 -4 10 -18q-2 -5 -3.5 -9t-3.5 -9q-3 -11 -9.5 -35.5t-13.5 -51.5t-13.5 -51.5t-9.5 -35.5q-15 -57 -29.5 -113.5t-29.5 -113.5q-2 -7 -3 -13t0 -14q-7 -1 -1 -10q0 3 0.5 6t0.5 5zM63 48q28 12 50 26.5t43 29.5q19 14 36.5 28.5t32.5 31.5q26 29 48 59t42 63
q14 26 27.5 52t21.5 55q2 7 3 14t2 15q0 3 -1 5.5t-2 5.5q-16 -1 -29 -10q-12 -8 -23.5 -16t-22.5 -18q-40 -37 -74.5 -78t-64.5 -86q-25 -38 -46.5 -77.5t-37.5 -82.5q-2 -4 -5 -17z" />
    <glyph glyph-name="copyright" unicode="&#xa9;" horiz-adv-x="348" 
d="M88 371q-1 5 -1.5 8.5t-0.5 8.5q11 29 32 47.5t49 29.5q27 12 56 14t58 -1q18 -2 32 -17t16 -33q2 -29 0.5 -57.5t-9.5 -57.5q-15 -52 -40 -98t-58 -88q-18 -23 -38.5 -41.5t-45.5 -33.5q-17 -10 -33.5 -16.5t-36.5 -4.5q-40 2 -59 34q-14 23 -16 53q-2 19 0.5 37t7.5 36
q8 33 21.5 64t30.5 60q8 14 16.5 27.5t18.5 28.5zM184 431q-14 -5 -26 -14.5t-22 -20.5q-74 -88 -108 -194q-6 -20 -10 -40.5t-3 -41.5q1 -11 3 -21.5t7 -20.5q12 -25 40 -26q21 0 37 8q26 12 47 29t40 38q15 17 28 35t25 38q45 72 63 155q4 16 5 32.5t-2 33.5
q-2 11 -6 19.5t-14 13.5q-27 10 -53.5 6t-52.5 -12q1 -5 1.5 -8.5t0.5 -8.5zM196 309q0 -7 1 -9q-2 -1 -3 -2t-2 -1q-11 0 -19.5 -5t-16.5 -12q-14 -14 -22 -35q-7 -16 -1 -29q3 -8 8 -14t15 -8q13 1 25 9q2 3 10 5q9 2 12 -8q-3 -11 -13 -17.5t-22 -8t-24 2t-19 13.5
q-9 12 -16 29q-2 4 -2.5 7.5t-1.5 8.5q9 61 72 83q5 -2 9.5 -4.5t9.5 -4.5z" />
    <glyph glyph-name="trademark" unicode="&#x2122;" horiz-adv-x="384" 
d="M229 419q9 -5 12.5 -15.5t12.5 -15.5q19 7 31 22t30 23q5 -2 8.5 -3.5t6.5 -3.5q10 -11 10 -24q-1 -7 -0.5 -13t-0.5 -12l-12 -84q-4 -7 -15 -3q-8 1 -10 11q-2 5 -2 8.5v8.5q1 11 1 23t3 23q2 5 1.5 11t0.5 12q-8 -2 -12 -6t-9 -7q-7 -5 -14 -9.5t-16 -2.5q-18 1 -27 17
q-1 1 -5 3q-5 -2 -6 -6.5t-3 -8.5q-3 -7 -4.5 -14t-3.5 -15q-1 -3 -5 -7l-7 -2q-2 2 -4.5 3.5t-4.5 3.5q0 5 -0.5 10t0.5 10q4 16 7.5 31.5t8.5 32.5q2 7 9 17q5 10 22 0q-2 -7 -3 -18zM164 395q-5 2 -9.5 4.5t-9.5 6.5h-45q-8 -10 -11.5 -22t-8.5 -23t-9 -22.5t-9 -23.5
q-5 -11 -9 -22.5t-8 -22.5q-7 -4 -14 3q0 5 -0.5 9.5t1.5 8.5q4 14 9 27.5t10 27.5q4 11 8 22.5t9 23.5q1 3 1 10q-18 5 -32.5 3.5t-34.5 -9.5q-12 2 -9 16q2 2 5 4t7 4q8 2 17 4t18 2q23 1 45 1h45q15 0 29 -8q3 -1 5 -4l4 -6q4 -8 -4 -14z" />
    <glyph glyph-name="at" unicode="@" horiz-adv-x="356" 
d="M204 263q-5 -6 -9.5 -10.5t-8.5 -9.5q-8 -8 -15 -16.5t-15 -15.5q-12 -11 -25.5 -17t-30.5 -2q-14 6 -19 22q-3 19 2 32q6 18 16.5 33.5t24.5 28.5q23 21 48 31q22 9 35.5 5.5t30.5 -22.5q2 -18 -1 -34q-3 -12 -4 -23.5t-3 -23.5q-2 -11 7 -21q14 8 24 25q8 14 15.5 29
t12.5 30q6 17 7 33t0 33q-2 16 -10 29t-20 21.5t-25.5 11.5t-26.5 -1q-36 -5 -63 -23.5t-50 -44.5q-24 -29 -40 -61.5t-23 -68.5q-5 -24 -5 -48t8 -48q8 -20 20 -37t32 -28q11 -7 23 -12.5t25 -9.5q10 -3 20 -3.5t21 1.5q28 5 41 28q4 6 7 12l7 14h9q5 -5 5.5 -9t-0.5 -9
q-1 -8 -6 -17.5t-12.5 -18t-17.5 -15t-20 -7.5q-5 -1 -10 -1.5t-13 -2.5q-8 2 -18 3.5t-21 4.5q-21 5 -40 15.5t-36 23.5q-20 16 -31 36.5t-18 44.5q-6 24 -6.5 47.5t4.5 47.5q19 94 88 163q41 39 93 51q31 7 58.5 1t50.5 -30q36 -39 30 -97q-5 -35 -20 -65.5t-36 -57.5
q-8 -9 -17 -14q-11 -7 -22.5 -3.5t-17.5 14.5q-7 12 -7 24q0 7 -0.5 14.5t-1.5 17.5zM107 214q6 0 10 1q8 3 14 8t12 11q20 19 36 40.5t31 43.5q0 1 -0.5 2t-0.5 3q-14 0 -23.5 -3.5t-26.5 -16.5q-18 -13 -31.5 -29.5t-21.5 -38.5q-2 -5 -3.5 -10.5t4.5 -10.5z" />
    <glyph glyph-name="percent" unicode="%" horiz-adv-x="335" 
d="M130 371q2 -8 3 -14.5t3 -13.5q-7 -30 -25.5 -48.5t-47.5 -29.5q-23 -7 -37 11q-5 6 -5.5 13t1.5 13q5 21 16 35q5 6 9.5 12.5t9.5 11.5q12 10 24 19q23 8 44.5 15.5t42.5 15.5q26 11 52.5 21t52.5 20l12 4l12 4q12 4 22 -7q9 -11 3 -23q-3 -8 -7 -15t-9 -14
q-23 -34 -46.5 -68t-47.5 -68q-41 -57 -80.5 -113.5t-77.5 -115.5q-8 -13 -16.5 -25.5t-16.5 -24.5q-3 -4 -6.5 -7.5l-6.5 -6.5q-8 4 -11 5q-9 12 -1 24q4 8 8.5 15t9.5 15l168 249q23 33 46.5 65.5t46.5 64.5q5 7 11 18q-16 -2 -28 -8t-25 -11q-13 -4 -25 -9l-24 -10
q-13 -5 -26 -9.5t-28 -9.5zM113 356q-12 3 -20 3q-16 -14 -28.5 -28t-20.5 -34q-1 -3 1 -11q17 2 29 10t23 19q7 8 12 17.5t4 23.5zM257 183q0 -4 2 -10q-5 -3 -10.5 -5.5t-11.5 -5.5q3 -5 5.5 -9t4.5 -9q10 -22 5 -49q-1 -5 -3.5 -10t-5.5 -10q-19 -27 -55 -32
q-14 -2 -24.5 5t-13.5 20q-2 9 1 16q18 65 75 98q7 4 12 4t19 -3zM174 70q11 -4 26 3q16 9 25 25q7 12 5 29q-1 5 -3 10t-8 9q-10 -6 -16.5 -14.5t-12.5 -18.5q-6 -9 -11 -19.5t-5 -23.5z" />
    <glyph glyph-name="yen" unicode="&#xa5;" horiz-adv-x="371" 
d="M80 426q4 9 12 6q7 -4 10 -8q4 -5 6.5 -11t4.5 -11q6 -17 11.5 -34t10.5 -34q6 -19 12.5 -37t13.5 -36q2 -5 4.5 -10l5.5 -11q14 20 26 38.5t26 36.5q14 19 29 37.5t29 36.5t29 35t31 31q16 3 19 -8q0 -4 -1 -6l-60 -78q-17 -22 -32.5 -43.5t-31.5 -43.5q-4 -5 -7.5 -11
t-7.5 -11q5 -4 9 -3.5t8 1.5q9 2 17.5 4t17.5 4q5 1 11 1.5t11 1.5q6 1 12 0.5t11 -0.5q7 -4 11 -8t4 -12l-5 -2q-26 4 -49.5 -2.5t-47.5 -12.5q-8 -2 -15 -4t-13 -4q-11 -20 -15.5 -35t-5.5 -29q2 0 3.5 -0.5t3.5 0.5q21 5 41.5 9.5t41.5 8.5q24 5 37 -13q2 -2 2 -4.5
t1 -4.5q-5 -4 -6 -3q-15 2 -29.5 -0.5t-28.5 -5.5l-38 -10t-38 -11q-11 -29 -15 -58t-10 -58h-12q-9 8 -10 16.5t1 17.5q2 11 3.5 22t3.5 22q2 6 3 11.5t-1 11.5q-3 4 -6.5 3.5t-6.5 -1.5l-34 -10t-33 -10q-15 5 -11 18q23 15 49 21t51 17q2 8 4.5 15.5t3.5 15.5t4.5 14.5
t0.5 14.5q-22 -3 -64 -16t-87 -30q-6 2 -7.5 3t-5.5 6q5 9 13 14t17 9l42 16t43 13q11 3 21.5 6.5t22.5 6.5q-5 14 -10.5 25.5t-10.5 23.5t-9 24.5t-8 24.5q-5 12 -8.5 23.5t-7.5 23.5q-5 12 -9 24.5t-8 25.5z" />
    <glyph glyph-name="plus" unicode="+" horiz-adv-x="352" 
d="M-7 179q-3 9 5 14q10 7 18 8q29 7 62 12l34 4t35 4q10 30 14 62t19 60q9 6 17 1q7 -6 5 -18q-2 -10 -4.5 -20t-4.5 -20q-3 -11 -6.5 -22.5t-6.5 -22.5q-1 -5 -2 -9.5t3 -9.5q31 1 61.5 1t60.5 -6q4 -1 6.5 -2.5t4.5 -3.5q8 -11 1 -18q-4 -2 -5 -1q-9 3 -18 4t-18 1
q-17 -1 -34 -1h-34q-19 0 -37 -7q-2 -5 -3 -9.5t-3 -9.5q-5 -20 -8.5 -40.5t-8.5 -40.5q-2 -6 -3.5 -11.5t-6.5 -10.5q-13 3 -13 11q1 8 1 16t2 16q3 17 6.5 33.5t7.5 33.5q0 7 -1 10q-4 2 -3 2q-12 -2 -24.5 -3t-24.5 -3q-20 -2 -39.5 -4.5t-39.5 -4.5q-10 -2 -15 5z" />
    <glyph glyph-name="backslash" unicode="\" horiz-adv-x="323" 
d="M-3 472q2 -1 4.5 -1.5t4.5 -2.5q3 -2 5.5 -5.5t4.5 -7.5q16 -29 34 -56.5t36 -55.5q17 -26 34 -53t35 -53q29 -44 59.5 -87t60.5 -88q5 -7 9 -13t7 -13q-5 -6 -9 -6t-9 2q-4 2 -9 7q-11 13 -21.5 25t-20.5 26q-24 34 -47.5 67t-46.5 68q-32 48 -62 96.5t-57 99.5
q-4 8 -7.5 16t-7.5 16q-2 5 -2 9.5t5 9.5z" />
    <glyph glyph-name="two" unicode="2" horiz-adv-x="313" 
d="M19 275q-12 -1 -14 11q-4 18 5 37q5 9 10.5 18t12.5 17q13 17 27.5 31t31.5 26q14 9 27.5 13t30.5 -1q28 -14 26 -50q-2 -16 -6.5 -31t-9.5 -30q-28 -78 -65 -154q-13 -26 -25.5 -52t-25.5 -52q-2 -3 -2.5 -6.5t-2.5 -6.5q3 -3 6 -2.5t7 1.5q42 16 82.5 31.5t82.5 30.5
q8 3 15.5 6t15.5 5q5 2 9.5 2t9.5 1q9 0 14 -6q3 -3 3.5 -6t-0.5 -14q-4 -2 -8 -3.5t-9 -3.5q-34 -14 -67.5 -27.5t-67.5 -27.5q-22 -9 -44.5 -18t-46.5 -14q-14 -3 -27 1q-13 6 -20 18q-5 17 5 37q11 20 20.5 39.5t19.5 39.5q26 50 48 100.5t41 103.5q8 19 12 37
q2 5 1.5 10t0.5 10q-7 8 -13 3q-9 -5 -17 -9.5t-16 -10.5q-12 -11 -24 -22.5t-23 -24.5q-10 -11 -17 -23t-10 -27q-1 -2 -1.5 -3.5t-1.5 -3.5z" />
    <glyph glyph-name="slash" unicode="/" horiz-adv-x="274" 
d="M7 -17q-8 -5 -13 2q-4 9 3 21q10 17 19 34.5t20 34.5q36 55 71.5 109.5t72.5 108.5q26 40 55 77.5t59 74.5q7 8 13.5 17t14.5 17q5 6 10 10.5t10 9.5q12 1 14.5 0t6.5 -8q-99 -121 -188.5 -247.5t-167.5 -260.5z" />
    <glyph glyph-name="seven" unicode="7" horiz-adv-x="261" 
d="M256 489q-22 1 -41 0.5t-37 -3.5q-16 -2 -40 -2.5t-38 1.5q-2 2 -2.5 5t-1.5 5q3 5 5 5q8 4 13 5q16 2 31.5 3.5t31.5 3.5q14 1 27 2t27 2q10 1 20 0q13 -2 22.5 -8.5t12.5 -20.5q0 -2 2 -8q-2 -17 -8 -32t-13 -30l-138 -294q-22 -48 -42.5 -94.5t-41.5 -94.5
q-5 -10 -10 -19.5t-10 -19.5q-2 -3 -5 -6t-7 -6q-8 4 -13 6q-2 4 -4 7.5t-4 7.5q13 29 25 58.5t25 58.5t25.5 59t25.5 59t25.5 58t25.5 58q14 29 27.5 58.5t27.5 58.5q13 29 29 57t28 60z" />
    <glyph glyph-name="five" unicode="5" horiz-adv-x="306" 
d="M162 405q-8 10 -9 13t-1 13q7 9 17 11t19 5q8 8 16.5 15.5t16.5 14.5q11 11 24 6q8 -5 6.5 -12.5t2.5 -14.5q12 -1 23.5 1t23 5t23 4.5t23.5 0.5q2 -3 4 -6.5t4 -5.5q-2 -6 -3 -6q-6 -2 -11.5 -4.5t-11.5 -4.5q-29 -8 -59 -13.5t-60 -10.5q-18 -25 -27 -56q-8 -28 7 -56
q5 -8 10.5 -16t10.5 -16q6 -9 11 -19t8 -21q12 -42 -7 -86q-8 -17 -18.5 -32t-23.5 -28q-25 -26 -53 -47t-58 -40q-10 -6 -21 -10t-25 -6q-4 2 -9.5 3.5t-12.5 3.5q-2 5 -4.5 11t-5.5 11q2 10 5 19t10 17q3 4 6.5 7t7.5 6q6 6 15 3q3 -2 5.5 -4.5l5.5 -5.5
q-6 -10 -14.5 -17.5t-10.5 -19.5q2 -4 5 -3.5t6 2.5q16 8 29.5 18t26.5 21q18 15 35.5 31t31.5 34q9 11 17 22.5t13 24.5q3 8 5.5 15.5t4.5 15.5q3 20 -0.5 38t-15.5 35q-4 5 -7.5 10.5t-6.5 10.5q-8 11 -12 23t-6 25q-2 11 0.5 21t4.5 20q2 6 4.5 11.5t4.5 12.5z" />
    <glyph glyph-name="sterling" unicode="&#xa3;" horiz-adv-x="316" 
d="M252 74q2 6 5 11.5t5 11.5q4 0 6.5 -0.5t4.5 -0.5q7 -8 6.5 -15.5t-1.5 -15.5q-6 -12 -16 -16.5t-21 -6.5q-5 -1 -10.5 -1h-11.5q-59 0 -123 11q-8 2 -17 3l-18 2q-10 2 -19.5 2t-18.5 -3q-4 -2 -8 -2h-7q-13 4 -16 15q1 2 1 3t1 3q1 1 1.5 2t2.5 2q23 20 38.5 44.5
t27.5 52.5q5 11 10.5 22.5t10.5 24.5q-5 0 -8 0.5t-7 0.5h-49q-13 0 -20 9q-2 2 -2 4.5t-2 6.5q24 4 47 5.5t46 1.5q6 4 7.5 9.5t3.5 10.5q8 21 14.5 42.5t14.5 43.5q6 17 12.5 34.5t17.5 33.5q2 4 5 7.5t6 7.5q19 27 56 31q3 -1 13 -3q24 -7 31 -32q4 -16 2.5 -30.5
t-12.5 -25.5q-5 -2 -8 -0.5t-5 5.5v5q2 5 4 10.5t3 10.5q2 11 -1.5 21t-15.5 16q-18 -2 -30 -11t-20 -23q-5 -9 -10 -18.5t-8 -19.5q-11 -29 -20.5 -59t-19.5 -59q2 -5 5 -5.5t5 -0.5h69q17 0 29 -8q9 -7 7 -18q-2 -1 -5 -2t-5 1q-8 5 -17 5.5t-18 -0.5h-38t-39 -2
q-2 -4 -4 -7.5t-4 -7.5q-12 -31 -26.5 -60.5t-33.5 -56.5l-2 -6q2 -1 3 -2t3 -1q27 -2 53.5 -6.5t52.5 -8.5q38 -6 74 -3q5 1 13 5z" />
    <glyph glyph-name="asciitilde" unicode="~" horiz-adv-x="319" 
d="M250 258q14 -3 17 -19q-1 -2 -2 -5.5t-3 -7.5q-15 -23 -37 -40q-30 -21 -69 -12q-13 2 -26 6.5t-26 9.5q-33 13 -61 -11q-9 -8 -17 -15.5t-13 -18.5q-10 -4 -17 3q-7 11 0 25q19 36 51 52q23 11 46 5q5 -2 9.5 -2.5t9.5 -2.5q13 -4 26 -7t25 -7q8 2 15 3.5t14 3.5
q21 7 36 24q5 5 10 9.5t12 6.5z" />
    <glyph glyph-name="eth" unicode="&#xf0;" horiz-adv-x="168" 
d="M99 261q-2 10 -3.5 18t-3.5 16t-5 15.5t-5 15.5q-2 0 -2.5 0.5t-1.5 0.5h-3q-8 -3 -16.5 -6.5t-16.5 -7.5q-22 -9 -44 -18.5t-44 -19.5q-8 1 -9 9q-2 11 6 14l31 15.5t31 14.5q14 7 28 12.5t29 11.5q-7 19 -16 35.5t-20 31.5l-10 6t-10 5q0 2 -1 3q4 14 14 12q6 -2 10 -5
t8 -8q17 -19 31 -45l6 -12t6 -11q7 -3 15 0l78 27q7 3 14 3.5t15 0.5q10 0 21 -9q-1 -2 -1 -4.5t-1 -4.5q-2 -1 -3.5 -2t-2.5 -1q-12 0 -23.5 -2.5t-22.5 -6.5l-30 -10t-30 -11l-8 -4t-9 -4q2 -5 3 -9.5t3 -9.5q7 -21 12 -42q1 -8 4.5 -14.5t4.5 -14.5q1 -7 -1.5 -14
t-4.5 -15q-2 -11 -2.5 -20.5t-3.5 -20.5q-5 -22 -15 -41t-27 -34q-14 -12 -31 -18q-18 -6 -31.5 3t-15.5 28q0 11 3 22q3 14 10 25q13 24 29.5 44.5t38.5 37.5q5 5 10.5 9t12.5 9zM21 103q10 3 17 6t13 8l15.5 15.5t12.5 17.5q11 18 14.5 37.5t5.5 39.5q-3 -2 -5 -2t-4 -2
q-35 -32 -59 -71q-9 -17 -12 -34q-1 -2 0 -6t2 -9z" />
    <glyph glyph-name="thorn" unicode="&#xfe;" horiz-adv-x="228" 
d="M35 118q-6 -6 -8 -10q-17 -35 -30 -71t-20 -74q-3 -16 -6.5 -31.5t-6.5 -29.5q-9 -10 -18 -2q-4 5 -3 11.5t1 12.5q0 5 0.5 11t1.5 11q5 19 9.5 37l9.5 38q6 26 11.5 53t10.5 54q18 93 42 182q8 29 15.5 58.5t15.5 58.5q4 16 9 31l10 30q1 5 3 9t8 6q7 0 13 -11
q-11 -39 -20.5 -79.5t-19.5 -81.5q-10 -40 -20.5 -79.5t-18.5 -82.5q8 4 10 8t4 9q26 53 60 98q13 16 21.5 22t26.5 14q21 -1 33 -24l4 -16t2 -17q1 -31 -4.5 -60.5t-21.5 -56.5q-5 -8 -10 -15t-12 -13q-16 -15 -35 -17.5t-39 4.5q-8 2 -14 5.5t-14 7.5zM152 299
q-14 -9 -24 -20t-18 -23q-35 -48 -60 -102q-1 -2 -1 -5t-1 -5q12 -11 24.5 -11t24.5 2q17 8 28 21t18 29q11 25 14.5 50.5t0.5 51.5z" />
    <glyph glyph-name="zero" unicode="0" horiz-adv-x="290" 
d="M158 473q31 -2 51 -22q46 -51 36 -123q-8 -62 -29 -118t-53 -107q-17 -26 -37.5 -47t-46.5 -33q-10 -5 -19 -6.5t-19 -1.5q-29 3 -41 34q-7 17 -7 33q-1 23 1 45t9 44q15 54 36 104q17 38 35.5 75.5t41.5 72.5q18 29 42 50zM149 422q-5 -6 -7 -11q-8 -14 -16.5 -28.5
t-16.5 -29.5q-23 -45 -42.5 -90.5t-35.5 -94.5q-5 -18 -8.5 -35.5t-5.5 -36.5q-2 -14 0.5 -26.5t12.5 -22.5q14 -3 25.5 1.5t22.5 11.5q32 22 55 59q32 51 52 107t28 119q2 15 0 29t-5 28q-6 25 -29 36q-7 -11 -3.5 -22.5t5.5 -22.5q-13 -9 -17 0q-4 7 -7 14t-8 15z" />
    <glyph glyph-name="six" unicode="6" horiz-adv-x="245" 
d="M270 508q-8 -1 -9.5 4t-5.5 10q-5 -5 -9 -9.5t-8 -9.5q-52 -68 -94 -145q-13 -23 -25 -46l-24 -46q-2 -3 -2.5 -6t-2.5 -6q6 -4 10.5 -3.5t9.5 2.5q11 4 20.5 4h20.5q44 0 57 -43q7 -21 3 -43q-4 -19 -11 -35.5t-17 -32.5q-37 -61 -88 -105q-18 -15 -39 -27
q-12 -7 -24.5 -7t-23.5 9q-15 18 -15 43q-2 26 2.5 51t10.5 50q10 35 22.5 69t26.5 68q52 116 126 223q13 18 26.5 36t29.5 35q5 4 9.5 8t9.5 8q3 3 6.5 4.5t7.5 3.5q10 2 17 -5t4 -16q-8 -26 -21 -43zM186 195q-3 11 -6 20t-15 14q-14 2 -28.5 2t-29.5 -4q-2 0 -3 -1.5
t-3 -2.5q-1 -4 1 -7t-2 -7q-7 -5 -14 -4q-4 2 -8 2.5t-9 -4.5q-2 -2 -4 -8q-13 -30 -22 -60.5t-17 -62.5q-4 -17 -5 -32.5t0 -32.5q0 -4 0.5 -7t0.5 -5q9 -6 17 -2q13 6 22 13q20 14 36.5 31.5t31.5 36.5q21 26 36.5 56t20.5 65z" />
    <glyph glyph-name="dollar" unicode="$" horiz-adv-x="223" 
d="M157 286q13 -14 22 -30t11 -37l-4 -16t-7 -16q-8 -13 -19.5 -21.5t-25.5 -13.5q-9 -5 -19 -8t-21 -7q-2 -3 -4 -7t-4 -9l-39 -105q-3 -8 -6 -14.5t-6 -13.5h-11q-7 5 -3 15q15 48 33 96q2 8 5 15.5t5 15.5q-4 4 -7 2.5t-6 -1.5q-3 1 -6 0.5t-5 -0.5q-16 -1 -30 5
q-4 1 -12 7q-5 4 -5.5 9.5t1.5 10.5q8 13 21 10q3 -1 8 -6q0 -2 0.5 -3t0.5 -3q-1 -2 -1 -3.5t-1 -3.5q14 -3 27 -1t27 7q14 31 26 62t24 63q-10 12 -18 24.5t-10 30.5q2 5 4 11t5 12q6 12 15.5 19.5t21.5 12.5q7 3 14 5.5t15 5.5q13 25 22.5 52t31.5 47q12 -2 14.5 -3.5
t4.5 -12.5q-14 -15 -23 -32t-18 -47q2 -4 5.5 -3.5t6.5 -0.5q24 -3 40 -25v-9.5t1 -8.5q-8 -10 -13 -3q-2 3 -4 6.5t-4 8.5q-9 7 -19 8t-21 -1q-8 -5 -10.5 -13t-5.5 -16q-5 -8 -8 -16.5t-6 -16.5t-7 -15.5t-3 -18.5zM146 265q-5 -9 -6 -11q-8 -20 -15.5 -39.5t-15.5 -39.5
l2 -6q22 8 37.5 21t19.5 37q-5 17 -8 22t-14 16zM156 369q-5 1 -8.5 -2.5t-7.5 -5.5q-3 -2 -8 -7q-4 -5 -6.5 -10.5t-2.5 -12.5q2 -14 10 -21q8 11 15 29t8 30z" />
    <glyph glyph-name="Euro" unicode="&#x20ac;" horiz-adv-x="290" 
d="M68 175q-2 17 2.5 31.5t3.5 28.5q-5 5 -9 4.5t-8 -1.5q-14 -4 -28 -7t-29 -7l-8 8q1 7 4 9.5t7 4.5q30 11 61 15q4 1 8 1.5t9 1.5q2 6 4.5 12t4.5 11q20 54 55 95q8 10 16.5 17t19.5 13q13 7 27.5 9.5t28.5 -1t26.5 -12t21.5 -22.5q2 -4 5 -7.5t2 -9.5l-8 -4
q-6 4 -12 9.5t-13 11t-16 8.5t-22 3q-12 -2 -25 -12t-25 -25q-16 -19 -27 -40t-20 -43q2 -4 4.5 -4.5t5.5 -0.5l18 2t17 1q16 1 31 1.5t30 0.5q6 0 11 -3.5t7 -11.5q-6 -4 -9 -5h-14q-26 1 -52 -2t-52 -7q-2 0 -6 -3q-6 -14 -8.5 -30t-4.5 -33q10 -5 18.5 -1.5t17.5 3.5
q18 1 38 6q8 2 16.5 5t17.5 6q10 -2 11 -10q0 -4 -2 -5q-9 -9 -20.5 -13t-24.5 -6q-16 -2 -32 -5t-33 -6q-1 0 -5 -2q-4 -7 -1.5 -13.5t3.5 -13.5q6 -32 27.5 -46.5t51.5 -13.5q3 0 5.5 0.5l7.5 1.5q5 8 10 15.5t10 15.5q6 4 13 -1q2 -4 2 -5q0 -27 -17.5 -41.5t-43.5 -9.5
q-9 2 -18 5l-18 6q-39 15 -55 55q-3 7 -4.5 14t-3.5 15q-1 2 -2 4.5t-2 4.5q-17 1 -32 -4t-31 -3q-5 2 -7 5t0 9q15 10 33.5 11t35.5 10z" />
    <glyph glyph-name="three" unicode="3" horiz-adv-x="265" 
d="M-8 -32q5 8 10 12.5t11 8.5q28 20 54.5 42t51.5 46q22 21 39 45.5t27 54.5q5 15 5 30t-2 30q-1 14 -13 27q-5 6 -10.5 12t-10.5 13q-23 31 -9 65q4 8 7.5 16t7.5 16q19 30 38 64q6 13 11 25q-5 5 -10.5 4.5t-10.5 -2.5q-12 -4 -23.5 -8.5t-22.5 -9.5q-20 -10 -39 -21.5
t-36 -25.5q-5 -5 -10.5 -10t-10.5 -10q-1 -5 -1.5 -9t-1.5 -8q-4 -2 -7 -2q-12 1 -14 15q-2 13 8 23q10 9 18.5 18.5t19.5 17.5q20 15 41.5 27t44.5 22q23 12 50 10q20 -1 31 -15.5t6 -33.5q-3 -10 -7 -19.5t-9 -18.5q-8 -14 -15.5 -28t-15.5 -28q-4 -6 -6.5 -13t-6.5 -14
q-3 -6 -3.5 -12.5t0.5 -14.5q4 -5 8 -10.5t9 -11.5q11 -13 20 -26q26 -48 9 -104q-6 -23 -16.5 -42.5t-24.5 -37.5q-17 -23 -39 -40.5t-45 -34.5q-16 -12 -31.5 -22.5t-32.5 -21.5q-2 -1 -3.5 -2t-3.5 -2q-11 -7 -21 -5q-7 2 -10 7t-5 12z" />
    <glyph glyph-name="eight" unicode="8" horiz-adv-x="242" 
d="M96 258q0 11 0.5 20.5t-0.5 19.5q-1 62 39 112q8 11 17.5 20t19.5 18q4 3 8.5 6t9.5 6q17 9 29 5.5t26 -20.5q6 -26 -3 -52q-9 -23 -17.5 -45.5t-16.5 -45.5q-11 -29 -20.5 -58t-20.5 -58q-4 -9 -7 -18.5t-8 -20.5q5 -16 6 -33t0 -35q0 -17 -6 -33q-16 -43 -56 -57
q-5 -2 -11 -3.5t-12 -3.5q-15 -4 -29 -1t-26 11q-13 8 -18.5 20.5t-6.5 26.5q-2 23 3.5 43t14.5 40q14 30 30 57.5t36 53.5q5 7 9.5 13.5t9.5 11.5zM107 215q-2 -1 -3 -1t-2 -1q-20 -27 -36.5 -55.5t-30.5 -59.5q-5 -13 -8.5 -26t-5.5 -27q-2 -17 7.5 -28.5t30.5 -8.5
q2 0 4 0.5t4 0.5q30 8 45.5 29t17.5 48q3 30 -5 60q-4 17 -7.5 34.5t-10.5 34.5zM138 203q5 2 6 5t3 6q9 26 18.5 53t18.5 53l16 48l16 48q2 5 2.5 9.5t-2.5 9.5q-7 0 -13 -3.5t-11 -8.5q-44 -35 -62 -88q-8 -21 -5 -40q0 -1 2 -5q5 -1 9 -2t9 -2q2 -3 3 -5.5t3 -6.5
q-5 -6 -10.5 -11.5t-10.5 -11.5q-2 -13 2 -24.5t6 -23.5z" />
    <glyph glyph-name="nine" unicode="9" horiz-adv-x="219" 
d="M185 433l18 12q3 -2 6.5 -4t8.5 -4q2 -4 2.5 -8t2.5 -9q-2 -9 -4.5 -19.5t-6.5 -21.5q-16 -50 -33.5 -98.5t-35.5 -98.5q-22 -60 -42 -119.5t-41 -119.5q-3 -8 -5.5 -16.5t-8.5 -16.5h-15q-2 4 -4.5 7.5t-5.5 8.5l33 108l33 105q9 27 17 54t18 53q9 26 18.5 51.5
t18.5 51.5q-6 2 -8.5 0t-5.5 -4q-23 -20 -51 -33q-9 -4 -18.5 -7.5t-20.5 -5.5q-20 -4 -33 1t-27 22q-5 15 -1.5 29t12.5 27q36 50 88 73q8 3 17 5.5t18 3.5q14 2 25.5 -2t21.5 -15q6 -6 9 -10zM163 432q-19 6 -35.5 1.5t-31.5 -12.5q-36 -22 -59 -52q-7 -9 -12.5 -18.5
t-6.5 -21.5q2 -2 4.5 -3.5t4.5 -1.5q7 0 13.5 0.5t13.5 2.5q16 4 29.5 11t27.5 16q16 11 29 24.5t27 27.5q1 2 1 3t1 2q-2 5 -3 9.5t-3 11.5z" />
    <glyph glyph-name="four" unicode="4" horiz-adv-x="235" 
d="M216 474q5 -2 9 -3.5t7 -3.5q14 -17 7 -34q-7 -19 -13.5 -37.5t-14.5 -37.5q-18 -46 -36.5 -91.5t-36.5 -92.5q-17 -42 -31.5 -85t-30.5 -85q-6 -17 -12 -32.5t-13 -30.5q-17 -10 -29 4q-9 9 -4 23q5 16 10.5 32t11.5 33q12 36 24.5 72.5t25.5 72.5q28 82 63 162
q7 15 13 33q-4 -2 -5.5 -2.5t-3.5 -2.5l-33 -33q-11 -11 -25 -19t-28 -14q-6 -3 -12 -4l-12 -2q-17 -1 -32 8.5t-20 32.5q-12 65 30 119q1 2 2.5 2.5t3.5 2.5q11 3 19 -2q7 -7 4 -22l-6 -4t-8 -5q-10 -24 -16.5 -49t5.5 -53q9 -3 17 -2t16 4q24 11 48 32q20 19 37.5 39
t34.5 41q10 13 23 26q3 3 11 8z" />
    <glyph glyph-name="parenleft" unicode="(" horiz-adv-x="139" 
d="M31 -66q-4 -3 -9 -8q-3 2 -6.5 4t-5.5 5q-16 20 -17 43q-2 42 4 80q11 78 32.5 152.5t47.5 149.5q33 96 100 176q7 8 14 15l15 15q9 8 19 13.5t22 7.5q10 -4 12 -5.5t4 -9.5q-1 -1 -1.5 -2.5t-1.5 -1.5q-9 -2 -15.5 -7t-12.5 -11q-20 -19 -37 -40.5t-32 -44.5
q-45 -74 -72 -154q-15 -43 -28 -86t-24 -88q-8 -31 -13 -61.5t-10 -62.5q-2 -20 1 -39.5t14 -39.5z" />
    <glyph glyph-name="braceright" unicode="}" horiz-adv-x="148" 
d="M106 306q-7 15 -9 30.5t-1 31.5q0 16 -0.5 31.5t-0.5 32.5q0 11 -2 20.5t-4 19.5q0 3 -1.5 5t-3.5 4q-12 6 -22 2.5t-20 -5.5q-9 4 -7 13q8 10 19.5 12.5t24.5 0.5q21 -3 31 -25q4 -8 5.5 -17t2.5 -18q1 -25 2 -49.5t2 -49.5q1 -5 1 -10.5v-10.5q7 -15 12 -27l-3 -9
q-11 -14 -14.5 -28.5t-5.5 -30.5q-4 -27 -4 -54t-2 -54q-2 -29 -6.5 -57t-14.5 -56q-14 -39 -47 -58l-22 -12t-22 -11q-14 -6 -24 8l-1 4q4 7 8 9q7 5 14 9t14 9q40 27 52 75q16 59 17 117q2 42 6 82q2 18 8 35t18 31z" />
    <glyph glyph-name="cent" unicode="&#xa2;" horiz-adv-x="265" 
d="M65 -131q-2 2 -4.5 3t-4.5 2q-10 13 -9 29q0 16 0.5 31.5t2.5 31.5q4 29 6 58.5t4 60.5q-5 2 -8.5 2.5t-7.5 2.5q-28 11 -41.5 36t-8.5 54q5 32 21.5 56.5t41.5 44.5q8 5 15.5 10.5t15.5 10.5q7 31 12 61t13 59q8 5 12.5 3t8.5 -9q1 -11 0.5 -23t-2.5 -25q-2 -12 -3 -24
t-2 -23q3 -4 5.5 -3.5t5.5 0.5q12 2 23 -1t22 -8q10 -4 16 -15q1 -2 1 -8q0 -1 -5 -4q-8 2 -15 7t-17 4q-5 0 -9.5 0.5t-9.5 -1.5q-5 -1 -10 -2.5t-10 -3.5l-2 -4q-1 -1 -1 -2q-5 -38 -10 -75t-10 -75q-1 -4 1 -8q0 -1 2 -3q20 2 39.5 6.5t39.5 12.5q5 2 10.5 5t10.5 7
q16 10 19 26q1 3 2 4t7 6q3 -2 6 -5t6 -5v-21q-5 -14 -14.5 -22t-20.5 -14q-25 -13 -48 -19q-16 -4 -31.5 -7t-32.5 -7q-5 -3 -5 -13q-2 -32 -7 -64.5t-7 -64.5q-1 -16 -2.5 -31.5t-1.5 -31.5q0 -4 -1.5 -7t-7.5 -5zM61 118q7 14 7 32q2 20 4.5 38.5t5.5 37.5q1 7 2 13.5
t-3 14.5q-23 -19 -37 -45q-13 -26 -11 -59q2 -11 7 -19t17 -11q2 -1 4 -1t4 -1z" />
    <glyph glyph-name="equal" unicode="=" horiz-adv-x="274" 
d="M10 218q1 16 10 18t18 3.5t18 1.5q40 2 79 5t80 2h13.5t12.5 -5q8 -7 4 -16q-4 -5 -8.5 -5h-9.5q-19 -1 -37.5 -1t-36.5 -1q-56 -3 -112 -9q-8 0 -15.5 0.5t-15.5 6.5zM245 174q4 -12 -3 -17q-22 3 -43 2.5t-44 -3.5q-22 -3 -43.5 -7t-42.5 -9q-18 -5 -33 -2q-5 3 -7.5 7
t-0.5 12q3 2 6.5 4t7.5 4q14 4 28 7t28 5q19 2 38 4.5t38 4.5q14 1 27.5 1t27.5 -5q5 -2 8.5 -4t7.5 -4z" />
    <glyph glyph-name="parenright" unicode=")" horiz-adv-x="206" 
d="M4 -85q-3 4 -6 7t-6 7l4 6l4 6q10 10 17 21.5t12 24.5q17 45 31.5 89.5t27.5 90.5q10 35 18.5 69.5t16.5 69.5q19 73 16 153q-1 25 -7.5 47t-22.5 42l-1.5 3l-1.5 3q1 2 1 3.5t1 3.5q1 1 5 3q11 -2 17.5 -8.5t11.5 -14.5q26 -40 29 -85q4 -44 -1 -86.5t-17 -84.5
q-18 -66 -37.5 -131t-43.5 -129q-6 -17 -13 -34.5t-15 -34.5q-12 -25 -40 -41z" />
    <glyph glyph-name="asciicircum" unicode="^" horiz-adv-x="194" 
d="M13 289q-11 -1 -13.5 0.5t-7.5 10.5q5 14 13.5 24t16.5 21q25 32 49 61q8 11 11.5 13.5t15.5 7.5q15 -1 25 -16q3 -5 6.5 -11t6.5 -12q11 -23 21.5 -46.5t18.5 -47.5q1 -3 3 -11q-2 -2 -4 -3.5t-4 -2.5q-8 1 -12 5.5t-6 9.5l-42 87q-2 5 -5 9t-6 9q-13 -14 -25 -27.5
t-23 -27.5t-22.5 -25.5t-16.5 -27.5z" />
    <glyph glyph-name="less" unicode="&#x3c;" horiz-adv-x="201" 
d="M17 235q12 -25 38 -44q20 -15 40.5 -30.5t38.5 -33.5q4 -3 7 -6.5t6 -7.5q2 -2 1.5 -5.5t0.5 -6.5q-5 -7 -13 -3q-3 1 -5 2.5t-4 3.5l-38 28t-37 28q-11 9 -21 19l-21 21q-9 11 -13 21q-13 29 10 50q9 8 18.5 16t18.5 16q20 17 38.5 34t38.5 34q9 8 18.5 15.5t18.5 15.5
q4 3 7.5 5t8.5 4q4 -8 10 -13q-3 -4 -5 -7t-4 -5q-45 -43 -94 -85q-11 -10 -23 -19.5t-23 -20.5q-5 -5 -10 -11t-8 -15z" />
    <glyph glyph-name="greater" unicode="&#x3e;" horiz-adv-x="169" 
d="M-8 387q3 2 4.5 3.5l3.5 3.5q5 -2 9 -3.5t6 -3.5q20 -20 42.5 -35.5t44.5 -32.5q11 -9 21 -17.5t21 -18.5q5 -4 8 -9t5 -8q3 -14 -2 -21q-11 -14 -22 -25q-18 -20 -37 -38.5t-37 -38.5q-11 -11 -20 -22l-18 -22q-3 -3 -6 -5.5t-6 -5.5q-10 1 -15 13q2 8 6.5 13.5
t9.5 11.5q24 30 49 59t53 56q5 5 9 9.5t8 9.5q1 5 -2 8l-5 5q-17 12 -33 24.5t-33 24.5q-10 8 -19.5 15.5t-18.5 15.5q-15 14 -26 34z" />
    <glyph glyph-name="question" unicode="?" horiz-adv-x="211" 
d="M147 501q5 -1 8.5 -1.5t7.5 -1.5q39 -12 45 -51q5 -34 -12 -64q-13 -21 -27.5 -41.5t-28.5 -40.5q-12 -17 -23.5 -35t-22.5 -36q-15 -24 -21 -51q-1 -4 -2 -7.5t-2 -7.5q-4 -4 -7 -3t-8 4q-6 24 2 47q5 13 10.5 25.5t13.5 23.5q19 33 38.5 65t39.5 65q9 14 18 34
q5 13 3.5 21t-12.5 22q-22 8 -47 -5q-11 -5 -16.5 -11t-16.5 -24q-9 0 -11 10q-3 12 3 24q8 14 20 22t27 13q7 2 21 4zM43 44q-5 1 -7.5 1t-4.5 1q-5 4 -6 8.5t0 9.5q8 10 17 18.5t20 16.5q12 -1 13 -14q-5 -11 -15 -19t-17 -22z" />
    <glyph glyph-name="exclam" unicode="!" horiz-adv-x="188" 
d="M58 170q-8 2 -9 3q-2 1 -3.5 3t-3.5 4q34 128 75 256q6 19 11.5 37t11.5 37q5 12 10.5 23.5t13.5 21.5q15 8 25 -8q-2 -2 -2.5 -5.5t-1.5 -6.5q-14 -40 -28 -79t-28 -79q-14 -42 -26.5 -83t-24.5 -83q-5 -21 -20 -41zM19 111q6 10 17 15q5 2 9.5 2t8.5 -3q3 -2 5.5 -5.5
t4.5 -6.5q-4 -8 -7 -14.5t-6 -13.5q-13 -8 -26 0q-11 8 -6 26z" />
    <glyph glyph-name="brokenbar" unicode="&#xa6;" horiz-adv-x="172" 
d="M62 183q8 2 11 -0.5t5 -7.5q0 -2 0.5 -3t0.5 -2q-7 -25 -13.5 -49.5t-14.5 -48.5q-11 -38 -20 -76.5t-17 -77.5q-1 -6 -2.5 -12t-3.5 -11q-5 -2 -8 -0.5t-6 4.5q-2 7 -1.5 13.5t1.5 13.5q11 54 22.5 107t26.5 106q2 8 5 16l6 16q2 3 4 6.5t4 5.5zM73 224l-8 6v9
q9 19 15 38.5t12 39.5q11 33 20.5 66.5t19.5 67.5q3 8 5 16.5t9 15.5q6 0 7.5 -0.5t6.5 -3.5q2 -4 1 -6q-16 -51 -31 -102t-32 -102q-2 -8 -5.5 -16.5t-7.5 -16.5q-2 -3 -5.5 -5.5t-6.5 -6.5z" />
    <glyph glyph-name="hyphen" unicode="-" horiz-adv-x="250" 
d="M-8 185q1 4 1 13q6 2 11 4.5t10 3.5q22 4 46 6q25 1 49.5 1.5t49.5 0.5q5 0 9.5 0.5t9.5 -1.5q3 -1 6 -3.5t5 -4.5q2 -1 2 -2.5t-2 -10.5q-13 -2 -25.5 -3.5t-25.5 -2.5q-19 -2 -37 -4t-37 -4q-24 -3 -49 -3q-13 -1 -23 10z" />
    <glyph glyph-name="bracketright" unicode="]" horiz-adv-x="139" 
d="M102 547q-13 4 -24.5 2t-22.5 2q-4 4 -5 6t-1 7q12 6 25 3.5t23 3.5q8 -2 14 -4.5t11 -8.5q1 -3 2 -6.5t1 -7.5q0 -20 -0.5 -39t-4.5 -38q-5 -24 -7.5 -48t-5.5 -47q-4 -28 -7.5 -55t-7.5 -54q-2 -18 -3.5 -36t-3.5 -35q-3 -26 -4 -52.5t-3 -52.5q-2 -17 -2.5 -34
t-2.5 -34q-1 -12 -2 -23.5t-3 -23.5q-1 -5 -3 -9t-4 -9q-14 -9 -28 -14t-31 -4q-5 2 -7.5 5t-2.5 9q8 12 21.5 14t24.5 11q1 2 2 5t1 6q2 22 3 43t3 42q2 32 3.5 64.5t6.5 64.5q2 19 3.5 37.5t3.5 36.5q3 24 6.5 48t7.5 47q3 21 6.5 42t6.5 42q3 16 5.5 31.5t4.5 31.5
q1 8 1 15.5v15.5z" />
    <glyph glyph-name="bracketleft" unicode="[" horiz-adv-x="81" 
d="M18 -12q11 -1 21 -1t20 -1q8 -5 13 -10t3 -14q-5 -6 -13 -2t-12 9q-7 1 -14 -1t-14 -2.5t-14 0.5t-14 8q0 3 -1 6.5t0 8.5q0 25 -0.5 49.5t2.5 49.5q2 24 3.5 48t4.5 48q3 26 6.5 52.5t6.5 53.5q3 23 7 44.5t8 44.5l18 117q2 8 3 15t3 14q2 8 5 14.5t6 13.5
q19 7 37.5 7.5t37.5 -0.5q12 0 16 -14q-8 -5 -17 -3.5t-18 -0.5q-8 -2 -17 -2.5t-17 -2.5q-6 -6 -7.5 -12.5t-3.5 -13.5q-4 -17 -6.5 -35t-5.5 -35q-4 -22 -7.5 -43.5t-6.5 -43.5q-2 -11 -3.5 -23t-3.5 -23q-5 -30 -9 -60t-7 -60q-3 -20 -4 -40.5t-3 -41.5l-6 -102v-7.5
t3 -8.5z" />
    <glyph glyph-name="one" unicode="1" horiz-adv-x="133" 
d="M21 -9q-14 -5 -17.5 -2.5t-11.5 16.5q9 53 20 105.5t23 106.5q11 52 24.5 104t24.5 107q-9 -5 -13.5 -11t-9.5 -11t-10 -11l-10 -12q-5 -5 -10 -10.5t-10 -10.5q-8 2 -9.5 3t-4.5 6q1 2 1 3.5t1 3.5q2 4 4.5 7.5t4.5 6.5q19 23 37.5 45.5t36.5 44.5q20 5 29 -15
q0 -6 1 -13t-1 -15q-3 -22 -6.5 -43.5t-7.5 -42.5l-12 -58t-13 -58q-12 -52 -24 -103t-25 -103q-2 -10 -5.5 -19.5t-6.5 -20.5z" />
    <glyph glyph-name="colon" unicode=":" horiz-adv-x="113" 
d="M52 267q1 6 5 11q7 5 13.5 6.5t12.5 0.5q11 -6 10 -16q0 -4 -0.5 -8t-0.5 -9q-3 -2 -6.5 -4.5t-7.5 -6.5q-8 5 -15 9.5t-11 16.5zM54 98q-13 4 -19 16q-3 8 0 16q4 7 10.5 10t12.5 0q8 -3 12 -10.5t1 -15.5q-4 -10 -17 -16z" />
    <glyph glyph-name="asterisk" unicode="*" horiz-adv-x="214" 
d="M37 304l8 24t8 26q-8 -2 -15 -5.5t-13.5 -7.5t-13.5 -6.5t-14 -1.5q-4 7 -4.5 9t1.5 10q8 5 15.5 10.5t15.5 11.5q-4 3 -7.5 5.5t-7.5 4.5q0 8 -1 12q2 2 3 2.5l3 1.5q13 3 26 0.5t27 -4.5q9 12 13 26.5t15 25.5q12 1 15.5 -1.5t11.5 -17.5q10 2 18 7t19 0q6 -5 2 -14
q-13 -7 -26 -14.5t-26 -15.5q-1 -5 1 -6t5 -2q11 -3 22.5 -5.5t22.5 -6.5q8 -2 15 -7q7 -4 2 -12q-4 -4 -8.5 -3.5t-9.5 1.5q-15 4 -30.5 7.5t-30.5 6.5q-2 1 -4.5 0.5t-4.5 -0.5q-11 -17 -17 -36.5t-19 -36.5q-1 -1 -6 -1q-9 0 -11 13z" />
    <glyph glyph-name="braceleft" unicode="{" horiz-adv-x="94" 
d="M77 -40q5 3 8 5l6 4q12 1 16 -9q0 -4 -1 -6q-5 -11 -15 -15q-9 -4 -21 1q-14 5 -25.5 13.5t-21.5 19.5q-16 15 -23 33.5t-8 40.5q0 22 1 43t3 42q4 28 8 55t9 54q2 11 2 21.5t1 21.5q-5 7 -8.5 12.5t-7.5 12.5l4 8t6 8q21 21 36 46.5t29 51.5q10 19 19.5 38t19.5 38
q6 11 14 23q14 22 36 33h22q8 -5 15 -11.5t6 -18.5l-4 -2l-4 -2q-5 4 -9 8l-9 9q-11 -5 -18.5 -13t-13.5 -17q-11 -16 -18 -31q-7 -12 -13 -24t-12 -25q-16 -32 -33.5 -62t-41.5 -57q4 -10 8.5 -20t5.5 -21q1 -5 1.5 -11t0.5 -11q-2 -13 -3.5 -26t-3.5 -26q-3 -18 -5.5 -36
t-4.5 -37q-2 -17 -3 -33t-1 -33q0 -11 2 -22l4 -22q0 -5 5 -12q16 -28 40 -39z" />
    <glyph glyph-name="bar" unicode="|" horiz-adv-x="149" 
d="M92 509h10q6 -8 8 -12v-4q-4 -17 -4 -33t-2 -33t-4.5 -35t-4.5 -36q-3 -23 -5.5 -45t-4.5 -45v-3q-2 -23 -3.5 -45t-3.5 -45q-2 -31 -3.5 -62t-6.5 -62v-8t-1 -8q-2 -22 -4.5 -43.5t-4.5 -44.5v-19q-1 -2 -2 -2.5t-3 -2.5q-8 0 -12 4.5t-6 10.5t0 11q0 15 -0.5 30.5
t3.5 30.5q1 2 1 8q2 31 3 62t4 62q3 27 3.5 54.5t5.5 54.5q2 17 2.5 34.5t3.5 34.5t5.5 35t4.5 36l4 30l4 30q2 11 3 23t3 23q1 4 3 7.5t4 6.5z" />
    <glyph glyph-name="quotedbl" unicode="&#x22;" horiz-adv-x="71" 
d="M7 432l10 -10q-1 -6 -1 -10.5t-2 -9.5q-1 -5 -2 -8.5t-2 -7.5l6 -9q4 2 5 3q4 10 7.5 19.5t8.5 19.5q2 4 4.5 7.5t4.5 7.5q8 2 11.5 -2t5.5 -10q-11 -22 -18.5 -45t-6.5 -48q-14 -3 -15 2q-2 8 -4.5 15t-4.5 15q-5 2 -10 5l-10 6q-2 15 -1.5 30t14.5 30z" />
    <glyph glyph-name="quotesingle" unicode="'" horiz-adv-x="68" 
d="M7 328l-8 8t-6 7q2 6 4.5 12t5.5 11v30q-3 4 -5.5 7t-4.5 6q0 4 -1 6q0 14 10 18q12 3 19 -10q5 -7 5 -15q2 -26 0 -52q-1 -10 -4.5 -14.5t-14.5 -13.5z" />
    <glyph glyph-name="semicolon" unicode=";" horiz-adv-x="159" 
d="M7 -6q-8 2 -12 4.5t-2 10.5q23 13 32 35t16 46q2 6 1.5 13t-0.5 15h11q11 -10 11.5 -22t-2.5 -24q-4 -17 -14.5 -36.5t-24.5 -36.5q-7 -1 -16 -5zM70 273q3 -2 5 -3l4 -2q16 -16 -2 -27q-4 -3 -12 -5q-13 6 -15 9t-1 16q3 3 6 4q3 2 6.5 4t8.5 4z" />
    <glyph glyph-name="comma" unicode="," horiz-adv-x="90" 
d="M18 91q10 6 16 4t11 -7q5 -9 4 -18.5t-4 -18.5q-5 -11 -10.5 -22t-10.5 -22q-3 -5 -7.5 -8t-9.5 -6q-11 -6 -17 12q16 19 24.5 40t3.5 46z" />
    <glyph glyph-name="period" unicode="." horiz-adv-x="68" 
d="M40 98q-2 -2 -4 -3.5t-4 -2.5q-7 -2 -12.5 1t-6.5 9q-1 5 -0.5 9.5t0.5 7.5q9 9 19 4q8 -5 9 -11t-1 -14z" />
    <glyph glyph-name="cedilla" unicode="&#xb8;" horiz-adv-x="124" 
d="M0 -76q6 4 10 6.5t9 5.5q5 -3 8.5 -5.5t7.5 -5.5q13 5 22.5 12.5t13.5 22.5q-2 7 -3.5 14.5t-8.5 14.5q-6 1 -12 1.5t-13 2.5q-2 4 -4 7.5t-2 7.5q0 18 4.5 34.5t12.5 33.5q2 3 8 7q6 -2 7.5 -3t5.5 -6q0 -1 0.5 -2t-0.5 -3q-4 -13 -7.5 -26t-4.5 -27q23 -9 31.5 -26
t10.5 -39q1 -23 -20 -41q-5 -3 -9 -6t-8 -5q-17 -5 -37 -2q-12 3 -16 10q-2 3 -3 7.5t-3 9.5z" />
    <glyph glyph-name="tilde" unicode="&#x2dc;" horiz-adv-x="214" 
d="M52 369q-14 -2 -23 -9t-19 -14q-2 2 -5 3.5t-5 3.5q-1 10 4 15.5t11 10.5q26 21 53 5q7 -4 13 -8t13 -8q13 -8 26 -1q9 5 18.5 9t18.5 9q8 5 16.5 9.5t17.5 6.5q6 -4 7 -6t3 -10q-12 -8 -23.5 -17.5t-24.5 -17.5q-5 -5 -11.5 -7t-13.5 -4q-8 -4 -21 0q-15 4 -30 14
q-6 5 -12.5 8.5t-12.5 7.5z" />
    <glyph glyph-name="caron" unicode="&#x2c7;" horiz-adv-x="143" 
d="M144 486l3 -3l2 -2l2 -4t2 -5q-1 -3 -2 -6.5t-3 -8.5q-12 -2 -20 -4q-8 -11 -17 -22t-19 -22q-8 -10 -16.5 -20t-20.5 -16q-11 -2 -18.5 1.5t-13.5 11.5q-7 10 -13 21t-10 23q0 1 0.5 2.5t0.5 3.5q6 2 9 2q10 -8 15.5 -21t16.5 -20q5 1 8 4l7 7q14 16 27 31.5t27 30.5
l7 7t7 6q9 7 19 3z" />
    <glyph glyph-name="acute" unicode="&#xb4;" horiz-adv-x="159" 
d="M149 463q-16 -16 -34 -28.5t-34 -26.5q-16 -15 -32 -29l-32 -28q-16 -3 -17 14q2 3 4.5 7t5.5 8q23 26 49.5 46t54.5 40q5 3 10 6.5t11 3.5q11 -1 14 -13z" />
    <glyph glyph-name="grave" unicode="`" horiz-adv-x="126" 
d="M110 341q-4 -2 -7.5 -2.5t-7.5 -2.5q-3 2 -7 4.5t-6 4.5q-7 8 -14 17t-14 17q-12 16 -24 31.5t-24 32.5q-4 5 -5 11q2 5 5.5 6t8.5 2q9 -4 14.5 -11t10.5 -14q11 -16 22 -31t22 -31q4 -4 7 -8t6 -7q2 -3 6 -5t8 -5q0 -6 -1 -9z" />
    <glyph glyph-name="circumflex" unicode="&#x2c6;" horiz-adv-x="136" 
d="M66 470q12 -2 16.5 -9t7.5 -15q5 -17 10 -34.5t8 -34.5l2 -12t2 -11q-8 -8 -16 -1q-8 5 -10 18q-6 32 -18 64q-5 0 -7.5 -3.5t-5.5 -5.5q-4 -3 -7 -6.5t-6 -7.5q-3 -3 -5.5 -6t-5.5 -6q-3 -4 -6 -7.5t-7 -6.5q-2 -2 -5 -2t-6 -1q-2 3 -3.5 6t-3.5 5v4q2 4 4.5 8.5
t5.5 7.5q14 14 26 30t30 26z" />
    <glyph glyph-name="ring" unicode="&#x2da;" horiz-adv-x="143" 
d="M7 352q-2 5 -3.5 10.5t-3.5 10.5q3 24 14 43t28 36q23 22 51 19q13 -5 20 -19q11 -19 3 -39q-11 -27 -30 -48q-7 -8 -15 -12.5t-17 -8.5q-13 -5 -24.5 -4t-22.5 12zM69 443q-13 -11 -21.5 -23.5t-15.5 -26.5q-2 -5 -3 -10.5t-3 -10.5q0 -2 1 -5t2 -5q16 1 26.5 9t18.5 20
q8 13 15 26t3 30q-7 -2 -12.5 -2.5t-10.5 -1.5z" />
    <glyph glyph-name="dieresis" unicode="&#xa8;" horiz-adv-x="113" 
d="M88 390q-11 -11 -21 -5q-5 3 -8.5 8t-1.5 13q4 8 10.5 9.5t14.5 3.5q14 -5 9 -17zM22 425l5 -5t7 -6q-2 -5 -3.5 -10t-3.5 -9q-12 -11 -21 -3q-11 9 -4 22q2 4 5 5t15 6z" />
    <glyph glyph-name="dotlessi" unicode="&#x131;" horiz-adv-x="165" 
d="M26 214q5 -8 9 -12.5t2 -9.5q-5 -11 -10 -20.5t-8 -20.5q-7 -20 -8 -37q-3 -11 6 -21q7 -3 9.5 -2t8.5 4q10 5 18.5 10t16.5 10q24 17 47.5 34.5t48.5 36.5q6 2 9 -6q1 -7 -2 -10.5t-6 -6.5q-23 -21 -48 -40t-51 -36q-8 -5 -16.5 -8t-17.5 -7q-13 -5 -27 1q-8 3 -14 8.5
t-9 14.5q-1 3 -1.5 6.5t-2.5 5.5q-1 25 6.5 46.5t17.5 41.5q4 9 11 15q2 2 5 2t6 1z" />
    <glyph glyph-name="a.swsh" unicode="&#xe000;" horiz-adv-x="671" 
d="M123 95q-11 2 -18.5 12t-9.5 22q-1 11 -0.5 21.5t4.5 21.5q2 4 2.5 7t-2.5 8q-11 -8 -18.5 -18.5t-16.5 -19.5q-9 -8 -17.5 -17.5t-16.5 -17.5q-10 -9 -19 -18.5t-20 -16.5q-6 -2 -8 -2q-21 2 -20 20q0 7 2 17q12 32 27 61.5t38 55.5q3 4 6.5 7t7.5 7q10 9 21.5 13.5
t27.5 -0.5q4 -3 8 -6.5t9 -8.5q5 0 7 2t4 5l28 31q2 0 5 0.5t6 0.5q7 -2 10.5 -7t1.5 -11q-3 -13 -9 -23l-25 -56q-5 -11 -7.5 -23t-5.5 -24q-2 -11 5.5 -12.5t18 1t20.5 6.5l15 6q74 25 148.5 45t150.5 39q25 7 50.5 12t51.5 9q14 3 28.5 2.5t28.5 0.5h3q12 -1 22 -11
q3 -4 3.5 -7.5t0.5 -16.5q-8 -8 -14 -1l-7 7t-9 4q-35 -2 -69.5 -10t-69.5 -17q-39 -10 -77 -21.5t-76 -23.5q-17 -5 -48.5 -16t-66 -21t-65.5 -16t-46 -2zM-9 112l8 4q26 25 50 50t45 53l2 7l-10 18q-10 -2 -14 -4q-10 -5 -17 -12t-13 -15q-29 -38 -45 -81z" />
    <glyph glyph-name="d.swsh" unicode="&#xe001;" horiz-adv-x="703" 
d="M160 266q1 4 1 13q-5 0 -9 -8q-18 -27 -36 -54.5t-37 -53.5q-11 -16 -23 -30t-24 -29q-4 -4 -8 -7t-9 -6q-18 -12 -35 5q-9 17 -4 34q8 31 23 57t41 45q7 5 15 8t19 -1l16 -15q8 6 12 14t10 15q6 8 11 16.5t11 16.5q5 8 9.5 15.5t9.5 15.5t10 15.5t10 15.5q6 8 11 16.5
t10 16.5l19 32q4 8 8.5 15.5t9.5 15.5l18 32l8 18t9 18q3 8 6.5 16.5t9.5 14.5q8 2 12.5 -2t6.5 -9q2 -3 0 -5q-14 -41 -31 -76q-11 -28 -23 -55t-23 -54q-6 -14 -14.5 -36.5t-16.5 -48t-13 -50t-4 -42t10 -26t30 -0.5q74 25 148.5 45t150.5 39q25 7 50.5 12t51.5 9
q14 3 28.5 2.5t28.5 0.5h3q12 -1 22 -11q3 -4 3.5 -7.5t0.5 -16.5q-8 -8 -14 -1l-7 7t-9 4q-35 -2 -69.5 -10t-69.5 -17q-39 -10 -77 -21.5t-76 -23.5q-43 -13 -80 -25t-66.5 -18t-50.5 -2.5t-31.5 20.5t-9 51t16.5 90zM0 113q28 19 57 60l13 21q0 7 0.5 13t-5.5 12
q-12 -3 -19 -11t-14 -17q-31 -40 -32 -78zM163 284l-2 -4q4 0 2 4z" />
    <glyph glyph-name="e.swsh" unicode="&#xe002;" horiz-adv-x="498" 
d="M-10 164q-2 4 -2.5 6.5t-2.5 5.5q4 3 10 7q7 12 12.5 23.5t12.5 22.5q21 35 54 56q9 6 16 8t21 0q3 0 5 -5q4 -6 6 -13q-2 -17 -10 -28.5t-19 -21.5q-28 -26 -58 -42q-5 -3 -4 -2.5t-3 -1.5q-5 -11 -6.5 -21.5t-3.5 -21.5q2 -6 3 -13t9 -11q14 -3 21.5 -3t20.5 5
q19 7 37.5 14t36.5 14q19 7 25 9.5t9 4t9 3t25 7.5q30 9 59.5 19t59.5 18q28 8 56 15.5t56 14.5q7 2 14 2.5t13 2.5h7q13 0 23 -11q6 -7 3 -22q-2 -2 -4.5 -4t-5.5 -4l-15 9h-6q-38 -8 -75.5 -19t-75.5 -23q-34 -11 -55.5 -17.5t-40.5 -13t-40 -14.5t-54 -20l-60 -18
q-21 -5 -41 -2q-31 3 -42 36q-2 9 -3 17.5t2 16.5q1 5 1 15zM105 276q-10 -4 -16 -7t-10.5 -7.5t-10 -11.5t-13.5 -18q-8 -9 -9 -12t-1 -12q16 10 25 19t21 23q10 10 14 26z" />
    <glyph glyph-name="f.swsh" unicode="&#xe003;" horiz-adv-x="169" 
d="M25 150q-2 -4 0 -7q7 -30 5 -58t-8 -56q-6 -38 -17 -73t-26 -69q-2 -5 -4 -8.5t-4 -8.5l-4.5 -4.5l-4.5 -4.5q-5 -1 -15 -1l-15 12q0 3 -0.5 5t-0.5 4q-2 19 0.5 37t5.5 36q8 41 18 80t22 78q5 15 8.5 29.5t8.5 29.5q2 7 5 13.5t5 13.5q23 73 51 140q3 6 6 12.5t7 12.5
q2 4 5.5 6t6.5 5q5 -3 8 -5t5 -4q4 -11 1.5 -18t-7.5 -14q-2 -5 -5 -8t-4 -8q-12 -32 -23.5 -65t-23.5 -65q0 -2 0.5 -4t0.5 -5q12 -3 44.5 0t75.5 8.5t91.5 13t91.5 14t75.5 11.5t44.5 6l5 -5l5 -5q3 -8 -4 -10q-8 -2 -16.5 -3t-17.5 -3q-8 -2 -37.5 -7t-70 -12t-86 -14
t-86 -12.5t-70.5 -8t-38 -0.5q-4 1 -7 1t-7 -2zM-33 -72q8 18 15 40t12.5 44.5t8 43t2.5 37.5q-11 -26 -17 -50.5t-13 -49.5q-4 -15 -7.5 -30.5t-2.5 -32.5z" />
    <glyph glyph-name="g.swsh" unicode="&#xe004;" 
d="M209 56q17 13 32.5 23t29.5 21q56 38 114 71t118 62q37 17 73.5 34t74.5 33l56 22t58 19q13 4 26.5 7t27.5 2q4 -1 8 -1t8 -1q25 -8 26 -29q3 -26 -19 -37l-6 -2l-6 -2q-8 5 -9.5 6.5t-3.5 9.5q0 2 2 4q3 3 6.5 5t6.5 5q2 2 3 4.5t3 6.5l-6 2t-5 1q-14 1 -26 -2.5
t-25 -6.5q-26 -8 -52 -18t-51 -21q-91 -39 -177 -84t-168 -99q-38 -25 -75 -51.5t-74 -55.5q-3 -6 -6.5 -12.5t-6.5 -13.5q-13 -26 -26 -51.5t-29 -50.5q-10 -16 -20.5 -31t-23.5 -29l-9.5 -9.5l-9.5 -9.5q-11 -11 -24.5 -16t-30.5 -1q-15 5 -20 22q-5 18 2 32q11 28 32 55
q12 14 24.5 27.5t25.5 27.5q20 21 40.5 40t42.5 37q16 13 27.5 41t19.5 59.5t13 61.5t8 49l-2 6q-2 -1 -3.5 -1t-3.5 -1q-17 -11 -33 -22t-33 -22q-10 -6 -19 -12t-19 -11q-17 -10 -35 -17.5t-41 -9.5q-13 1 -23.5 8.5t-12.5 25.5q2 11 7 20.5t13 17.5q12 12 24 23t27 20
q17 10 35 15t38 0q10 -5 15 -12.5t9 -18.5q5 3 9 6t9 5q8 5 14.5 9.5t13.5 8.5q15 7 27 0.5t13 -23.5q2 -45 -7 -87t-21 -84zM124 231q-16 1 -31 -3q-26 -11 -45.5 -28t-35.5 -40q-1 -2 -1 -4.5t-1 -4.5q11 -2 13.5 -2.5t8.5 1.5q28 9 52 24t47 31q2 8 1 14t-8 12zM5 -207
q3 0 4.5 -0.5t3.5 0.5q8 6 16 12.5t15 14.5q18 21 32.5 44t28.5 47q1 2 1 3.5t1 4.5q-15 -11 -30.5 -26.5t-29.5 -33t-25 -34.5t-17 -32z" />
    <glyph glyph-name="h.swsh" unicode="&#xe005;" horiz-adv-x="727" 
d="M146 133q2 11 5 21t5 20q3 12 10.5 32.5t10.5 35.5t-3 18.5t-30 -16.5q-16 -14 -31.5 -30t-29.5 -33q-20 -23 -38.5 -46t-38.5 -46q-3 -4 -6.5 -8.5t-8.5 -6.5l-5.5 5.5l-4.5 4.5q-2 9 -1.5 16.5t2.5 14.5q8 30 15.5 60t16.5 61q11 40 24.5 78.5t27.5 76.5q14 37 29 71.5
t32 69.5q4 8 9 16t11 13h5l6 -6q4 -14 0.5 -29.5t-10.5 -31.5t-16 -32t-15 -31q-14 -32 -29.5 -78.5t-29 -90.5t-23.5 -78t-11 -42q23 29 47 55.5t50 50.5q5 5 11 10.5t12 10.5q23 17 49 11q2 -3 4.5 -6t4.5 -6q1 -3 1 -9q1 -13 -1.5 -25t-5.5 -25q-3 -12 -6 -23.5t-6 -22.5
t-5 -19.5t-1 -12.5t6.5 -3.5t17.5 7.5q16 11 32 21l32 20q30 18 60.5 34t62.5 29q21 8 42 14t43 11q17 4 34.5 7.5t35.5 6.5q3 1 8 1q21 1 42 1.5t41 -0.5q30 -1 58 -25q6 -5 12 -15t9.5 -22.5t5 -26t-1.5 -24.5q-1 -1 -1.5 -2t-1.5 -2q-4 -1 -5 -0.5t-6 4.5q0 4 -1 8t0 9
q0 17 -6 32q-4 15 -16 23q-16 12 -35 13q-25 2 -49.5 2t-49.5 -5q-51 -8 -100 -24q-35 -12 -69 -30q-26 -13 -51 -26.5t-51 -27.5q-13 -7 -26 -14.5t-27 -14.5q-12 -6 -27.5 -13.5t-28 -9t-19.5 7.5t-2 36z" />
    <glyph glyph-name="i.swsh" unicode="&#xe006;" horiz-adv-x="498" 
d="M36 193q-8 -14 -12 -29.5t-8 -31.5q-1 -5 -0.5 -11t5.5 -11q9 -8 13.5 -8t15.5 2q45 8 82.5 19t75.5 19q84 16 168 30q18 3 36.5 4t37.5 3h8t8 -1q14 -2 23 -9t11 -22q-2 -3 -6 -7q-9 0 -11.5 6.5t-8.5 9.5q-14 1 -29 0.5t-30 -2.5q-22 -3 -43.5 -6t-43.5 -8
q-62 -10 -127 -24q-38 -8 -74 -17.5t-71 -16.5q-19 -4 -41 2q-16 5 -25 16.5t-8 28.5q0 7 1.5 13.5t2.5 13.5q6 26 18 46q7 13 17.5 14.5t18 -3t8 -11.5t-11.5 -9zM27 256q-6 3 -8 5t-2.5 3.5t-2.5 3.5q2 2 3.5 4.5t3.5 4.5q16 8 31.5 16t31.5 16q2 2 5.5 1.5t7.5 0.5
q5 -5 7 -8q-1 -2 -1 -3t-1 -2q-3 -5 -8 -8q-17 -8 -33.5 -17t-33.5 -17z" />
    <glyph glyph-name="k.swsh" unicode="&#xe007;" horiz-adv-x="632" 
d="M97 151q6 -55 34.5 -78.5t69.5 -25.5t90.5 12t99 35t93.5 43.5t74 37.5l28 12t29 9q14 -5 16.5 -8.5t0.5 -15.5q-5 -1 -9 -1.5t-9 -2.5q-13 -5 -22 -10q-45 -23 -91.5 -47t-93 -44t-91 -33.5t-84.5 -14.5q-73 -4 -107.5 20.5t-46.5 72.5q-1 3 -0.5 7.5t0.5 9t-1.5 8.5
t-4.5 5l-54 -54q-14 -14 -24 -30t-24 -29q-10 2 -12.5 4t-7.5 12q14 41 28.5 82t30.5 83q8 21 12 31l7 17.5t8 16.5t16 29q18 33 36 65.5t38 63.5q34 54 79 92q22 20 48 28q18 -2 26 -11.5t10 -25.5q-2 -31 -16.5 -55.5t-32.5 -47.5q-49 -65 -107 -118q-23 -20 -45 -40.5
t-48 -37.5q-10 -20 -14 -30t-6 -18t-5 -18.5t-10 -31.5q-1 -1 1 -7q7 6 13 11.5t11 11.5q30 29 63 55t69 48q14 9 28.5 16.5t30.5 12.5q5 1 9.5 2t9.5 1q10 1 18 -7q4 -4 5 -9.5t-2 -10.5q-2 -3 -5 -6.5t-6 -5.5q-21 -17 -42 -30q-49 -30 -111 -50zM70 273q3 0 5 2
q65 55 116 117q15 18 29.5 36.5t25.5 38.5q5 8 8.5 17t7.5 18q2 6 2.5 12t-4.5 13q-2 -1 -5 -0.5t-5 -1.5q-5 -2 -9 -5t-9 -6q-19 -14 -34 -30.5t-29 -34.5q-29 -39 -52 -81t-45 -85q-2 -2 -1.5 -5t0.5 -6h-3.5t0.5 -3zM124 184q11 1 18 4.5l13 6.5q21 10 40 21.5t36 26.5
q1 1 1 5q-29 -11 -55 -27.5t-53 -36.5z" />
    <glyph glyph-name="l.swsh" unicode="&#xe008;" horiz-adv-x="685" 
d="M228 518q4 -4 9 -8t9 -7q14 -35 5 -66q-5 -17 -12.5 -31t-16.5 -28q-34 -47 -72 -88.5t-83 -78.5q-12 -11 -18.5 -17t-11 -12.5t-7.5 -15.5t-8 -25q-4 -15 -4 -15.5t1.5 1.5t1.5 1.5t-4 -15.5q-2 -6 -2.5 -12.5t-1.5 -12.5q4 -3 6 -3t5 1q11 6 21.5 12t21.5 12
q63 34 120 61.5t114 46t117 27t129 5.5q15 -1 30.5 -2t30.5 -3q12 -2 22 -6q20 -7 35.5 -18.5t21.5 -36.5q-1 -5 0 -12t-4 -12q-6 -1 -9.5 2t-8.5 5q-2 8 -3 15t-2 13q-5 8 -11.5 11t-11.5 5q-11 2 -21 4t-19 3q-26 0 -51 0.5t-51 -1.5q-17 -1 -34 -3.5t-35 -4.5
q-48 -8 -92 -22.5t-86 -33.5t-82 -40t-81 -41q-12 -6 -25 -11.5t-27 -11.5q-13 -6 -29 1q-11 6 -18.5 15.5t-6.5 21.5q2 29 7 52q5 21 6.5 27t2.5 9t3.5 8.5t9.5 25.5q14 38 28 75t31 72q15 30 32.5 58t37.5 55q8 11 18 21t21 18t23 11t29 -1zM64 244q34 31 64 63t56 69
q11 14 21 29.5t17 32.5q8 21 8 41q0 3 -1 6t-2 7q-11 3 -18 -0.5t-13 -8.5q-11 -9 -20 -19.5t-17 -21.5q-60 -86 -95 -183q-2 -2 -3 -5.5t3 -9.5z" />
    <glyph glyph-name="m.swsh" unicode="&#xe009;" horiz-adv-x="985" 
d="M18 117q5 4 8.5 7t7.5 7q17 17 32.5 33.5t32.5 33.5q14 14 28 27t30 24q6 5 13 8t14 7q10 5 22.5 -1.5t15.5 -16.5q2 -8 3 -16.5t-1 -16.5q-2 -11 -4 -23t-4 -23q-1 -4 -1.5 -8t3.5 -8q7 2 12 6.5t10 9.5q35 28 70 54.5t73 49.5q22 14 50 27q24 13 42 -3q15 -18 7 -43
q-6 -19 -11 -37.5t-10 -37.5q-3 -10 -3.5 -20t0.5 -19q4 -5 8.5 -7t9.5 -3q15 -1 30 2t30 7q51 12 106.5 31t110.5 32.5t107 14t96 -26.5q24 -14 29 -32t1 -41q-2 -12 -13 -17q-14 0 -14 13q-1 4 -0.5 7t0.5 7q1 5 0.5 10.5t-0.5 10.5q-5 13 -20 18q-57 21 -106.5 18
t-97.5 -18t-96 -35t-101 -32q-32 -6 -63 -2q-23 4 -37 18t-13 37q0 9 0.5 18t3.5 18q6 17 11 35t11 36q2 8 0 12q-3 2 -5.5 1.5t-4.5 -1.5q-28 -15 -54 -31.5t-51 -35.5q-23 -17 -46 -35t-46 -35q-10 -8 -20 -14q-11 -8 -18 -6t-18 14q-2 14 -0.5 27.5t3.5 27.5t4.5 28
t1.5 28q-11 -3 -19 -9.5t-16 -12.5q-54 -45 -99 -96q-10 -12 -22 -22q-4 -4 -8.5 -6.5t-8.5 -5.5q-12 2 -15.5 3.5t-12.5 10.5q-2 7 -3 18q-1 26 1.5 52t6.5 52q1 5 3 9t4 9q1 1 8 5q2 -2 5 -3.5t5 -3.5q2 -8 1.5 -15.5t-2.5 -15.5q-3 -19 -5.5 -37.5t-2.5 -38.5
q0 -3 0.5 -5.5t0.5 -7.5z" />
    <glyph glyph-name="n.swsh" unicode="&#xe00a;" horiz-adv-x="713" 
d="M713 176q-4 -2 -4 -5.5t-2 -6.5q-1 -3 -3.5 -5.5t-4.5 -5.5q-4 2 -6.5 4t-6.5 4q0 7 -0.5 13.5t-0.5 14.5q-11 4 -21.5 6t-21.5 0q-5 0 -11 -0.5t-11 -0.5q-21 -1 -41.5 -4t-40.5 -7q-31 -5 -61 -10.5t-60 -12.5q-3 -1 -20 -6.5t-40.5 -13t-48.5 -15.5t-45 -14
q-9 -3 -18 -5.5t-19 -5.5q-2 0 -3.5 -1t-3.5 -1q-26 -4 -39.5 10.5t-9.5 38.5q2 14 5.5 28t6.5 28q1 4 1.5 7t-1.5 7q-6 1 -12 -5q-25 -22 -49.5 -44t-49.5 -44q-8 -7 -16 -13.5t-16 -11.5q-19 -13 -31 -5t-16 25q-1 5 -1 11v11q2 24 6.5 46.5t14.5 44.5q1 3 2.5 6t3.5 6h13
q5 -5 5 -9.5v-9.5q-25 -51 -22 -112q10 3 11 4q8 6 15.5 12.5t15.5 13.5q23 20 45 41t45 41q13 11 26 20q13 10 28 4q3 -4 11 -12q2 -13 1.5 -24.5t-3.5 -23.5q-2 -8 -3.5 -16t-3.5 -16q-1 -6 -1 -12t-1 -11q6 -7 14 -3q48 17 83 30t67 23t66.5 17.5t82.5 14.5q35 5 70 8
t70 2q24 -2 41 -13l8 -6q6 -8 5.5 -14.5t5.5 -11.5v-5z" />
    <glyph glyph-name="o.swsh" unicode="&#xe00b;" horiz-adv-x="525" 
d="M535 197q-3 -1 -4 -1.5t-3 -0.5q-1 0 -1.5 0.5t-1.5 0.5q-12 15 -27.5 20t-33.5 6q-32 2 -63.5 2t-63.5 -3q-18 -2 -36 -5.5t-37 -7.5q-21 -5 -42.5 -9.5t-42.5 -9.5q-11 -3 -18.5 -4.5l-15 -3t-16 -2.5t-21.5 -3q-2 -1 -3 -2l-1 -1q-11 -17 -19.5 -33t-19.5 -32
q-7 -10 -15.5 -18.5l-17.5 -17.5q-8 -8 -17.5 -10.5t-23.5 4.5q-16 11 -14 35q1 32 11 62t25 57q13 25 39 29q4 5 7 8.5t6 6.5q11 7 22 6t18 -10q2 -4 4 -8.5t6 -9.5q0 -3 -0.5 -8t-0.5 -10q0 -7 2 -15q3 -1 7 -1q10 4 13 1.5t13 -0.5q22 5 43.5 10.5t44.5 10.5
q25 5 49.5 9.5t50.5 6.5q18 1 36 2.5t36 -0.5q20 -2 40.5 -3t40.5 -6q17 -5 28 -12q18 -10 17 -30zM8 87q8 4 14.5 11t12.5 15t11.5 16.5t10.5 17.5q6 9 11 17t7 19q-9 5 -13.5 12.5t-8.5 16.5q-1 2 -3.5 4t-4.5 4q-18 -26 -28 -54t-14 -57q-1 -6 -1 -11.5t6 -10.5zM85 210
q1 9 3 18t-2 17q-8 -8 -8.5 -15.5t-0.5 -15.5q0 1 8 -4z" />
    <glyph glyph-name="r.swsh" unicode="&#xe00c;" horiz-adv-x="751" 
d="M705 201q7 -5 14 -11.5t9 -17.5q-4 -4 -7 -8q-6 5 -12 8.5t-12 8.5q-22 3 -48 -2q-57 -9 -112.5 -24.5t-111.5 -32.5q-45 -14 -89 -27.5t-89 -28.5q-29 -10 -58 -20.5t-58 -21.5q-20 -7 -40 -11t-41 -3q-33 7 -43 23t-6.5 36t15.5 41.5t23 39.5q-7 8 -15.5 11l-17 6
t-14 8.5t-6.5 18.5q-12 23 -3 48q7 18 18.5 30t32.5 15q2 -1 5 -1.5t5 -1.5q20 -10 16 -32q-2 -6 -4.5 -12.5t-5.5 -12.5q-5 -10 -11 -19t-11 -18q-1 -5 2.5 -6.5t5.5 -3.5q4 -3 8 -5.5t8 -6.5q11 -8 10 -22t-7 -30.5t-12.5 -33t-6 -28t13 -15.5t43.5 4q23 6 45.5 14
t45.5 17q44 17 87.5 30t87.5 27q40 13 80.5 24t80.5 23q27 8 54.5 14t55.5 11q17 2 35.5 4t39.5 -6zM39 259q-10 2 -12.5 1t-5.5 -3q-9 -8 -13 -18.5t-6 -22.5q-1 -3 1 -6t7 -2l8 12l8 12t6.5 12.5t6.5 14.5z" />
    <glyph glyph-name="s.swsh" unicode="&#xe00d;" horiz-adv-x="751" 
d="M75 118q0 8 -4.5 15t-9.5 13q-7 8 -14 15l-15 15l-27 27q-23 26 -20 59q2 13 6 23q8 15 21.5 29.5t27.5 22.5q15 8 29 4q14 -5 8 -22q-2 1 -4 1t-4 1t-3.5 1.5t-3.5 1.5q-13 -5 -21.5 -13.5t-16.5 -18.5q-11 -14 -11 -36t15 -37l9 -9t9 -8q17 -15 31 -31.5t25 -37.5
q2 1 4 1t4 1q55 29 112.5 51t117.5 42q87 28 177 51q33 8 66.5 14.5t68.5 10.5q13 2 25.5 3t26.5 0q7 0 13.5 -1t13.5 -3q20 -5 28.5 -13.5t15.5 -31.5q-2 -4 -3.5 -7.5t-3.5 -7.5q-9 -4 -17 5q-1 5 -2 11t-2 11q-9 10 -22 10q-18 1 -36 0.5t-36 -3.5q-81 -12 -159.5 -34.5
t-156.5 -48.5q-105 -35 -205 -86q-5 -2 -10 -5l-10 -6l-2 -8t-1 -8q-1 -26 -11 -47t-25 -40q-17 -20 -35 -36t-41 -28q-15 -8 -30.5 -12t-32.5 -2q-28 2 -34 28q-2 6 0 13q2 8 5 15.5t8 14.5q8 11 16.5 22t19.5 20q50 43 110 78q6 4 9 4t7 7zM-75 -59q17 -4 24 -3.5t19 5.5
q29 12 51.5 31t41.5 45q16 22 24 52q1 2 0 4.5t-1 7.5q-8 -5 -14.5 -8.5t-13.5 -8.5q-26 -15 -50 -33t-47 -38q-8 -8 -15.5 -17t-12.5 -20q-2 -4 -3 -8t-3 -9z" />
    <glyph glyph-name="t.swsh" unicode="&#xe00e;" horiz-adv-x="665" 
d="M646 125q-5 5 -8.5 11.5t-15.5 11.5q-10 2 -24.5 2t-29.5 -3q-24 -5 -48 -10.5t-48 -12.5q-84 -24 -159 -55.5t-153 -52.5q-22 -5 -44 -9.5t-45 -4.5q-29 2 -50 14q-13 7 -22 21q-6 9 -10 19.5t-4 21.5q-1 15 -1 30t2 30l5 30t4.5 23t6 23t9.5 29q5 15 5.5 14.5t-0.5 -4
t-1 -4t5 14.5l6 21q-12 6 -23 1.5t-23 -1.5q-2 2 -3.5 4t-4.5 4q2 2 2.5 5t2.5 4q10 4 16 4q10 1 19 1h18l3 3l2 2l20 64t20 63q-3 9 -3 14q2 6 5 11t11 7q2 -2 4.5 -3.5t5.5 -3.5q4 -19 -2 -39q-7 -23 -13.5 -46t-13.5 -46q-2 -6 -3.5 -12t0.5 -13q19 -4 37 -2.5t35 5.5
q11 -5 9 -13q-9 -9 -25 -9q-8 -1 -16.5 -1h-16.5h-31q-2 -5 -4 -8t-3 -8q-6 -17 -7 -19t-1 -0.5t-0.5 -0.5t-5.5 -20q-4 -14 -6.5 -22t-4 -15t-3.5 -15.5t-5 -22.5q-3 -17 -5.5 -34t-0.5 -34q0 -13 4 -24q7 -32 40 -35q19 0 39 3q27 3 53.5 11t52.5 16q92 33 180 64t180 45
q14 2 26.5 2t26.5 -1t25.5 -8t16.5 -21q2 -5 2.5 -10t-0.5 -8t-4 -3t-8 5z" />
    <glyph glyph-name="u.swsh" unicode="&#xe00f;" horiz-adv-x="759" 
d="M163 251q2 -2 5.5 -4t7.5 -5q-1 -5 -1.5 -9.5t-2.5 -9.5l-8 -30t-8 -31q-4 -12 -4 -24t2 -25q0 -2 1.5 -4.5t3.5 -4.5q8 2 14 6.5t12 9.5q39 33 77 62q35 27 74 47.5t81 35.5q37 14 74 26t75 23q26 8 52.5 14t54.5 10q17 3 33 2t32 -8q3 -2 6.5 -4.5t6.5 -5.5
q2 -2 2.5 -5.5t1.5 -5.5q-7 -7 -14 -4q-22 8 -43 5t-41 -7q-38 -8 -75 -19t-73 -24q-45 -15 -87.5 -32.5t-84.5 -40.5q-36 -19 -68.5 -41t-64.5 -47q-10 -8 -23 -15q-16 -9 -29.5 -3.5t-19.5 25.5q-2 5 -2 16v28.5t5 28.5q2 5 2.5 10t-3.5 10q-5 -5 -10 -9.5t-10 -9.5
q-14 -13 -27.5 -25.5t-27.5 -24.5q-6 -5 -13 -9.5t-14 -9.5q-2 -2 -5 -2.5t-5 -1.5q-14 -2 -21.5 2t-11.5 19q-2 5 -1.5 11.5t2.5 12.5q6 31 20 63q5 11 16 11.5t18 -4.5q-5 -24 -14 -47t-6 -49q5 2 2 3t0 3q9 7 17.5 13.5t16.5 14.5q20 18 39.5 36.5t39.5 36.5q5 5 10 9.5
t14 6.5z" />
    <glyph glyph-name="y.swsh" unicode="&#xe010;" horiz-adv-x="702" 
d="M24 236q7 3 14 0.5t10.5 -7.5t3 -10.5t-9.5 -9.5q-8 -10 -10 -21t-6 -22q-2 -9 2 -14q6 0 7 2q9 6 12.5 11.5t11.5 12.5l87 81q4 4 7.5 8t8.5 7q7 7 15 12q11 5 20 0t11 -16q2 -8 0 -14q-4 -32 -12 -68q-3 -12 -3.5 -15.5t-0.5 -5.5t-0.5 -5.5t-3.5 -15.5q-1 -3 -1 -12
q4 1 8 3q48 33 97 64.5t100 61.5q49 29 98.5 55t101.5 49q22 10 44 18t47 10q9 -2 18.5 -5.5t15.5 -16.5v-17q0 -9 -9 -16q-8 -4 -13 -4q-2 1 -5 3.5t-6 4.5q3 6 6 11t5 10q-4 4 -5 4q-14 2 -27 -1.5t-26 -8.5q-58 -22 -113 -52q-78 -42 -152 -87t-147 -94
q-13 -9 -25.5 -18.5t-26.5 -19.5q-2 -5 -4.5 -11t-4.5 -11q-14 -45 -32 -86.5t-39 -83.5q-35 -70 -83 -130q-10 -12 -21.5 -22t-23.5 -18t-25 -12t-27 -6q-19 -3 -39 9q-24 14 -22 45q1 10 4 19.5t8 19.5q11 23 24.5 44.5t29.5 41.5q32 39 67.5 75t73.5 68q22 18 43.5 36
t44.5 38q5 14 7 20l3.5 10.5t2.5 11t5 21.5q5 20 8.5 40.5t8.5 40.5q0 1 -2 5q-7 -2 -11 -6t-9 -8q-14 -13 -26.5 -26t-26.5 -26l-48 -42q-5 -4 -10.5 -7t-10.5 -6q-1 -1 -5 -3q-15 -6 -26 1t-12 24q-2 8 0 16q3 15 7.5 29.5t12.5 27.5q4 6 9 9zM127 48q-6 1 -9.5 -2.5
t-7.5 -6.5q-33 -27 -65 -55t-61 -60q-21 -23 -41 -47t-37 -51q-8 -13 -14 -25.5t-11 -26.5q-3 -9 -4 -17.5t4 -18.5q4 -2 8.5 -4t7.5 -4q25 2 43 12.5t33 27.5q23 22 42 50q35 51 61 105t49 111q1 4 1 13q2 0 2 1l1 1q-2 -2 -2 -3z" />
    <glyph glyph-name="Lslash" unicode="&#x141;" horiz-adv-x="335" 
d="M358 172q-8 -2 -20.5 -8.5t-26 -14.5t-25.5 -15.5t-18 -11.5q-35 -23 -69.5 -47t-69.5 -47q-20 -14 -39.5 -26t-39.5 -25q-8 -5 -17 -8.5t-20 -0.5q-10 5 -17 13t-4 19q6 22 14.5 43t16.5 42q21 49 42 97.5t43 96.5q10 24 26 57.5t33 69t33.5 69t27.5 57.5q2 6 5 11.5
t10 8.5q2 -1 8.5 -1t8.5 -1q2 -2 2.5 -3.5t2.5 -2.5q-1 -2 -0.5 -3.5t-0.5 -2.5q-9 -20 -18 -39l-18 -38q-12 -27 -29 -63.5t-35 -75t-34.5 -75.5t-28.5 -64l-32 -76l-32 -76q-3 -7 -5.5 -14t-4.5 -14q-1 -3 -0.5 -5.5t0.5 -7.5q11 6 20 11t17 11q34 23 67.5 45.5t67.5 45.5
q20 13 39.5 25t39.5 24q3 2 11 7t17 10t17.5 9.5t11.5 5.5q4 2 8 1.5t8 -0.5q6 -1 7 -13zM24 229q1 4 1 13q6 2 11 4.5t10 3.5q22 4 46 6q25 1 49.5 1.5t49.5 0.5q5 0 9.5 0.5t9.5 -1.5q3 -1 6 -3.5t5 -4.5q2 -1 2 -2.5t-2 -10.5q-13 -2 -25.5 -3.5t-25.5 -2.5
q-19 -2 -37 -4t-37 -4q-24 -3 -49 -3q-13 -1 -23 10z" />
    <glyph glyph-name="lslash" unicode="&#x142;" horiz-adv-x="145" 
d="M115 518q8 -2 11 -3q2 -7 1.5 -12.5t-2.5 -11.5q-11 -30 -21.5 -60t-21.5 -61q-11 -34 -22.5 -67.5t-21.5 -67.5q-7 -22 -12.5 -44t-7.5 -45q0 -9 -2 -14q-5 -14 -3.5 -28.5t3.5 -28.5q1 -3 3.5 -5.5l4.5 -4.5q11 1 18.5 5.5t15.5 10.5q22 19 39 40q10 14 21 28.5
t21 28.5q2 3 4 5l4 4q11 3 14 -9q-17 -23 -34 -47.5t-36 -46.5q-6 -6 -12.5 -11.5t-12.5 -10.5q-25 -20 -53 -13q-13 8 -17 21.5t-4 27.5q-2 23 0 45.5t7 45.5q4 26 9.5 50.5t13.5 49.5q17 53 35 104.5t41 102.5q2 5 5.5 11t11.5 11zM-53 256q1 4 1 13q6 2 11 4.5t10 3.5
q22 4 46 6q25 1 49.5 1.5t49.5 0.5q5 0 9.5 0.5t9.5 -1.5q3 -1 6 -3.5t5 -4.5q2 -1 2 -2.5t-2 -10.5q-13 -2 -25.5 -3.5t-25.5 -2.5q-19 -2 -37 -4t-37 -4q-24 -3 -49 -3q-13 -1 -23 10z" />
    <glyph glyph-name="Zcaron" unicode="&#x17d;" horiz-adv-x="576" 
d="M334 169q-5 10 -12.5 16t-16.5 11q-8 4 -15.5 8t-15.5 9q-24 14 -33.5 39.5t0.5 56.5q7 23 18 44.5t22 42.5t23 42t22 44q6 16 5 32q0 2 -2 8q-11 5 -21.5 4t-21.5 -4q-20 -5 -38 -12.5t-36 -16.5q-34 -17 -66.5 -36t-63.5 -42q-9 -8 -18 -14.5t-18 -14.5
q-7 -6 -13 -12.5t-10 -15.5q2 -8 4 -12l-3 -5q-7 -2 -10 -1q-13 4 -14 17q2 9 7 16.5t12 14.5q15 17 31 31.5t34 27.5q42 29 85.5 53.5t91.5 42.5q11 4 23 7t25 2q9 0 14 -1q36 -10 36 -49q0 -14 -5 -32q-6 -20 -15 -37.5t-18 -35.5q-9 -16 -17.5 -32.5t-16.5 -33.5
q-8 -14 -13.5 -29t-7.5 -33q1 -21 26 -34q5 -3 10.5 -6.5t10.5 -5.5q22 -13 37 -29q6 -4 9 -7q4 2 7.5 4t7.5 4q32 22 64.5 42.5t65.5 39.5q18 10 35.5 18.5t36.5 15.5q15 6 29.5 9t30.5 1t26 -8q6 -5 2 -18q-2 0 -5 -0.5t-5 0.5q-21 7 -43 -1q-10 -4 -20 -7t-19 -8
q-20 -10 -39 -20t-38 -21q-29 -18 -57 -36.5t-57 -36.5q-3 -2 -5.5 -4t-5.5 -4q-1 -10 -1.5 -19t-2.5 -17q-3 -18 -11 -34t-18 -32q-15 -25 -32.5 -47.5t-36.5 -44.5q-14 -17 -29 -33.5t-31 -30.5q-14 -13 -28.5 -24.5t-29.5 -22.5q-24 -19 -52 -25q-15 -5 -29.5 -3.5
t-28.5 10.5q-16 10 -19 26q-5 28 8 51q8 13 16.5 25t19.5 23q20 20 40 38.5t42 35.5q41 31 81 60.5t82 57.5zM51 -141q13 -9 27 -4q22 6 40 18q13 10 25.5 19.5t23.5 20.5q48 43 91 96q15 18 29 37t26 39q5 8 8.5 16t8.5 16q1 2 1 5t-4 5q-3 -2 -6.5 -4.5t-6.5 -4.5
q-33 -24 -65.5 -48t-65.5 -49q-27 -21 -52 -44.5t-49 -49.5q-18 -20 -30 -45q-2 -5 -3 -10.5t2 -12.5zM315 697l3 -3l2 -2l2 -4t2 -5q-1 -3 -2 -6.5t-3 -8.5q-12 -2 -20 -4q-8 -11 -17 -22t-19 -22q-8 -10 -16.5 -20t-20.5 -16q-11 -2 -18.5 1.5t-13.5 11.5q-7 10 -13 21
t-10 23q0 1 0.5 2.5t0.5 3.5q6 2 9 2q10 -8 15.5 -21t16.5 -20q5 1 8 4l7 7q14 16 27 31.5t27 30.5l7 7t7 6q9 7 19 3z" />
    <glyph glyph-name="zcaron" unicode="&#x17e;" horiz-adv-x="328" 
d="M60 57q4 -2 6.5 -3t4.5 -1q16 -2 33 3q85 26 165 74q12 7 28 21t25 25l9 9q12 3 13 -9q-5 -12 -18.5 -27t-24.5 -23t-22 -15t-22 -13q-31 -17 -63 -31t-65 -27q-16 -6 -33 -9t-37 2q-3 3 -7.5 7t-8.5 8q-5 17 -2.5 31t8.5 28q6 12 12.5 24t13.5 25q5 10 11 20t11 21
q3 5 5 10.5t4 10.5q-4 9 -12 7l-63 -3q-4 -1 -7 -2t-7 0t-7 2.5l-7 3.5q1 3 1 5.5t1 5.5q26 5 51.5 9t52.5 -1q3 -3 14 -4t14 -3q3 -10 4 -20t-1 -18q-7 -17 -14 -30q-6 -12 -13 -24l-14 -24q-8 -14 -22.5 -29.5t-16.5 -35.5zM163 429l3 -3l2 -2l2 -4t2 -5q-1 -3 -2 -6.5
t-3 -8.5q-12 -2 -20 -4q-8 -11 -17 -22t-19 -22q-8 -10 -16.5 -20t-20.5 -16q-11 -2 -18.5 1.5t-13.5 11.5q-7 10 -13 21t-10 23q0 1 0.5 2.5t0.5 3.5q6 2 9 2q10 -8 15.5 -21t16.5 -20q5 1 8 4l7 7q14 16 27 31.5t27 30.5l7 7t7 6q9 7 19 3z" />
    <glyph glyph-name="fi" unicode="&#xfb01;" horiz-adv-x="333" 
d="M25 150q-2 -4 0 -7q7 -30 5 -58t-8 -56q-6 -38 -17 -73t-26 -69q-2 -5 -4 -8.5t-4 -8.5l-4.5 -4.5l-4.5 -4.5q-5 -1 -15 -1l-15 12q0 3 -0.5 5t-0.5 4q-2 19 0.5 37t5.5 36q8 41 18 80t22 78q5 15 8.5 29.5t8.5 29.5q2 7 5 13.5t5 13.5q23 73 51 140q3 6 6 12.5t7 12.5
q2 4 5.5 6t6.5 5q5 -3 8 -5t5 -4q4 -11 1.5 -18t-7.5 -14q-2 -5 -5 -8t-4 -8q-12 -32 -23.5 -65t-23.5 -65q0 -2 0.5 -4t0.5 -5q18 -4 34.5 -3.5t33 2.5t33.5 4.5t35 4.5l5 -5l5 -5q3 -8 -4 -10q-8 -2 -16.5 -3t-17.5 -3q-25 -5 -50 -10.5t-51 1.5q-4 1 -7 1t-7 -2zM-33 -72
q8 18 15 40t12.5 44.5t8 43t2.5 37.5q-11 -26 -17 -50.5t-13 -49.5q-4 -15 -7.5 -30.5t-2.5 -32.5zM220 264q-6 -1 -11 10q4 10 9 19t13 16q8 8 16.5 14.5t19.5 8.5q4 -2 8.5 -7t3.5 -10q-5 -8 -14 -12.5t-16 -12.5q-7 -7 -14 -13t-15 -13zM195 214q5 -8 9 -12.5t2 -9.5
q-5 -11 -10 -20.5t-8 -20.5q-7 -20 -8 -37q-3 -11 6 -21q7 -3 9.5 -2t8.5 4q10 5 18.5 10t16.5 10q24 17 47.5 34.5t48.5 36.5q6 2 9 -6q1 -7 -2 -10.5t-6 -6.5q-23 -21 -48 -40t-51 -36q-8 -5 -16.5 -8t-17.5 -7q-13 -5 -27 1q-8 3 -14 8.5t-9 14.5q-1 3 -1.5 6.5t-2.5 5.5
q-1 25 6.5 46.5t17.5 41.5q4 9 11 15q2 2 5 2t6 1z" />
    <glyph glyph-name="fl" unicode="&#xfb02;" horiz-adv-x="314" 
d="M25 150q-2 -4 0 -7q7 -30 5 -58t-8 -56q-6 -38 -17 -73t-26 -69q-2 -5 -4 -8.5t-4 -8.5l-4.5 -4.5l-4.5 -4.5q-5 -1 -15 -1l-15 12q0 3 -0.5 5t-0.5 4q-2 19 0.5 37t5.5 36q8 41 18 80t22 78q5 15 8.5 29.5t8.5 29.5q2 7 5 13.5t5 13.5q23 73 51 140q3 6 6 12.5t7 12.5
q2 4 5.5 6t6.5 5q5 -3 8 -5t5 -4q4 -11 1.5 -18t-7.5 -14q-2 -5 -5 -8t-4 -8q-12 -32 -23.5 -65t-23.5 -65q0 -2 0.5 -4t0.5 -5q18 -4 34.5 -3.5t33 2.5t33.5 4.5t35 4.5l5 -5l5 -5q3 -8 -4 -10q-8 -2 -16.5 -3t-17.5 -3q-25 -5 -50 -10.5t-51 1.5q-4 1 -7 1t-7 -2zM-33 -72
q8 18 15 40t12.5 44.5t8 43t2.5 37.5q-11 -26 -17 -50.5t-13 -49.5q-4 -15 -7.5 -30.5t-2.5 -32.5zM284 518q8 -2 11 -3q2 -7 1.5 -12.5t-2.5 -11.5q-11 -30 -21.5 -60t-21.5 -61q-11 -34 -22.5 -67.5t-21.5 -67.5q-7 -22 -12.5 -44t-7.5 -45q0 -9 -2 -14q-5 -14 -3.5 -28.5
t3.5 -28.5q1 -3 3.5 -5.5l4.5 -4.5q11 1 18.5 5.5t15.5 10.5q22 19 39 40q10 14 21 28.5t21 28.5q2 3 4 5l4 4q11 3 14 -9q-17 -23 -34 -47.5t-36 -46.5q-6 -6 -12.5 -11.5t-12.5 -10.5q-25 -20 -53 -13q-13 8 -17 21.5t-4 27.5q-2 23 0 45.5t7 45.5q4 26 9.5 50.5
t13.5 49.5q17 53 35 104.5t41 102.5q2 5 5.5 11t11.5 11z" />
    <glyph glyph-name="underscore" unicode="_" horiz-adv-x="383" 
d="M-8 51q1 4 1 13q6 2 11 4.5t10 3.5q22 4 46 6q12 0 43.5 0.5t66 1t66 0.5h43.5q5 0 9.5 0.5t9.5 -1.5q3 -1 6 -3.5t5 -4.5q2 -1 2 -2.5t-2 -10.5q-13 -2 -25.5 -3.5t-25.5 -2.5q-9 -1 -37 -2t-60 -2t-60 -2t-37 -2q-24 -3 -49 -3q-13 -1 -23 10z" />
    <glyph glyph-name="Scaron" unicode="&#x160;" horiz-adv-x="305" 
d="M285 463q6 -19 -4 -40q-5 -10 -9.5 -20t-9.5 -20q-2 -3 -3 -5l-2 -4q-10 -4 -14 4q0 2 -0.5 3.5t-0.5 2.5q3 8 6.5 15t6.5 15l12 33q-6 6 -13 1q-11 -8 -22.5 -16t-22.5 -18q-51 -46 -85 -104q-6 -9 -9.5 -18t-6.5 -18q-2 -5 -2 -10.5v-9.5q5 -10 11 -15.5t13 -9.5
q6 -5 12.5 -8.5t11.5 -6.5q14 -9 25.5 -19.5t19.5 -24.5l3 -3l3 -3q3 2 5 3t5 3q19 14 37 27t37 25q8 5 15.5 9t15.5 8q20 7 34 -11q1 -2 1 -5.5t1 -6.5q-3 -1 -5 -6q-5 2 -9.5 3.5t-9.5 3.5q-10 0 -41 -21.5t-79 -59.5q-1 -4 -1 -7.5t-1 -7.5q-1 -18 -6 -34.5t-13 -32.5
q-17 -35 -38.5 -67.5t-50.5 -58.5q-19 -18 -45 -30q-8 -2 -15 -3t-15 1q-8 3 -12.5 6.5t-12.5 14.5q-4 17 0 31t12 28q16 29 35 48q23 27 49 50.5t54 46.5q8 6 15.5 12.5t14.5 14.5q0 11 -4.5 18t-11.5 13q-9 8 -18.5 13.5t-19.5 12.5q-12 7 -24 17q-14 12 -20 28.5t4 41.5
q8 22 19 40q25 35 54 66t63 57q6 5 13 9l14 8q10 3 19 2.5t15 -11.5zM26 -82q7 1 11 0.5t9 1.5q9 5 17.5 10t15.5 13q12 11 22.5 23t20.5 26q36 48 58 103q1 3 1.5 6t-3.5 7q-14 -11 -26.5 -21.5t-25.5 -21.5q-23 -20 -42.5 -41.5t-36.5 -45.5q-7 -9 -11 -18.5t-9 -20.5
q-2 -4 -1.5 -8.5t0.5 -12.5zM293 623l3 -3l2 -2l2 -4t2 -5q-1 -3 -2 -6.5t-3 -8.5q-12 -2 -20 -4q-8 -11 -17 -22t-19 -22q-8 -10 -16.5 -20t-20.5 -16q-11 -2 -18.5 1.5t-13.5 11.5q-7 10 -13 21t-10 23q0 1 0.5 2.5t0.5 3.5q6 2 9 2q10 -8 15.5 -21t16.5 -20q5 1 8 4l7 7
q14 16 27 31.5t27 30.5l7 7t7 6q9 7 19 3z" />
    <glyph glyph-name="scaron" unicode="&#x161;" horiz-adv-x="242" 
d="M145 271q0 -6 1 -8q-2 -1 -3 -2t-2 -1q-17 2 -31.5 -3t-27.5 -15q-9 -6 -17 -12t-16 -13q-9 -8 -15.5 -18.5t-8.5 -24.5q0 -7 3 -13t8 -11l6 -6t6 -5q14 -11 24.5 -24t18.5 -29q5 -1 8 2t7 5q3 2 5.5 4t5.5 4l96 69q8 5 15.5 9.5t16.5 6.5q13 -7 15 -10t1 -15
q-14 -5 -26.5 -13.5t-24.5 -17.5q-29 -20 -56.5 -41.5t-55.5 -42.5q-11 -34 -31 -60t-47 -48q-5 -5 -11.5 -9t-13.5 -8q-20 -11 -35 5q-6 13 0 32q20 32 48.5 57t59.5 49q0 9 -2 13q-3 9 -8 16t-12 14q-8 7 -14.5 14t-14.5 15q-17 17 -17.5 41t14.5 42q36 44 87 60
q6 2 12.5 2h12.5q5 0 9.5 -3t9.5 -7zM162 431l3 -3l2 -2l2 -4t2 -5q-1 -3 -2 -6.5t-3 -8.5q-12 -2 -20 -4q-8 -11 -17 -22t-19 -22q-8 -10 -16.5 -20t-20.5 -16q-11 -2 -18.5 1.5t-13.5 11.5q-7 10 -13 21t-10 23q0 1 0.5 2.5t0.5 3.5q6 2 9 2q10 -8 15.5 -21t16.5 -20
q5 1 8 4l7 7q14 16 27 31.5t27 30.5l7 7t7 6q9 7 19 3z" />
    <glyph glyph-name="oe" unicode="&#x153;" horiz-adv-x="286" 
d="M78 110q-9 -14 -18.5 -22t-23.5 -17q-10 -6 -21 -9t-24 0q-10 4 -15.5 11t-9.5 17q-1 20 5 37t14 33q11 21 22.5 41.5t30.5 35.5l17 -2l14 14h19q11 -5 15.5 -12.5t6.5 -17.5q3 -16 1 -30t-7.5 -27.5t-12.5 -26t-13 -25.5zM41 199l-4 -2q-23 -34 -36 -70q-6 -14 -9 -27
q-1 -4 -1 -8t5 -8q8 -2 15 1.5t13 7.5q15 9 25 19.5t20 27.5q-15 10 -20 26t-7 31q-2 2 -2 3h2q1 0 1 2q-2 -2 -2 -3zM79 162q6 11 10 26t3 28q0 9 -9 10q-6 -5 -8.5 -12t-5.5 -14q0 -8 -1.5 -17.5t2.5 -16.5q6 -2 9 -4zM79 172q18 49 62 75q5 3 12 5t13 4q13 3 24 -5
q19 -12 9 -33q-3 -7 -7.5 -11.5l-9.5 -9.5q-30 -22 -66 -34q-2 0 -4 -1l-4 -2q-15 -35 -12 -51t18 -18.5t37.5 6t47 22.5t47 31t36.5 31q8 5 12 4t12 -9q-2 -3 -3.5 -7t-4.5 -6q-23 -16 -44 -33t-42 -31.5t-45 -23.5t-53 -9q-24 2 -35 12.5t-13 25.5t2.5 33t10.5 35z
M178 234q-15 -3 -26 -11t-20 -19q-2 -2 -4 -5t1 -8q23 9 43 27q3 3 5.5 6t0.5 10z" />
    <glyph glyph-name="periodcentered" unicode="&#xb7;" 
 />
    <glyph glyph-name="ae" unicode="&#xe6;" horiz-adv-x="278" 
d="M80 159q-9 -8 -16.5 -18t-15.5 -18q-9 -8 -17.5 -17.5t-16.5 -17.5q-10 -9 -19 -18.5t-20 -16.5q-6 -2 -8 -2q-21 2 -20 20q0 7 2 17q12 32 27 61.5t38 55.5q3 4 6.5 7t7.5 7q10 9 21.5 13.5t27.5 -0.5q4 -3 8 -6.5t9 -8.5h2zM-25 86l8 4q26 25 50 50t45 53l2 7l-10 18
q-10 -2 -14 -4q-10 -5 -17 -12t-13 -15q-29 -38 -45 -81zM71 172q18 49 62 75q5 3 12 5t13 4q13 3 24 -5q19 -12 9 -33q-3 -7 -7.5 -11.5l-9.5 -9.5q-30 -22 -66 -34q-2 0 -4 -1l-4 -2q-15 -35 -12 -51t18 -18.5t37.5 6t47 22.5t47 31t36.5 31q8 5 12 4t12 -9q-2 -3 -3.5 -7
t-4.5 -6q-23 -16 -44 -33t-42 -31.5t-45 -23.5t-53 -9q-24 2 -35 12.5t-13 25.5t2.5 33t10.5 35zM170 234q-15 -3 -26 -11t-20 -19q-2 -2 -4 -5t1 -8q23 9 43 27q3 3 5.5 6t0.5 10z" />
    <glyph glyph-name="Ydieresis" unicode="&#x178;" horiz-adv-x="494" 
d="M326 102q11 5 19 10q30 20 59.5 40t61.5 37q10 6 19.5 10.5t19.5 9.5q4 2 8 2.5t9 1.5q2 -2 4 -4.5t4 -4.5q-2 -5 -3 -6q-4 -3 -7.5 -6.5t-8.5 -5.5q-51 -27 -97.5 -59.5t-93.5 -65.5q-5 -3 -9.5 -6t-9.5 -8q-5 -11 -10.5 -22.5t-10.5 -23.5q-17 -38 -35.5 -74.5
t-41.5 -71.5q-20 -33 -45 -59q-26 -29 -59 -39q-16 -5 -31.5 -5t-30.5 8q-20 9 -21 30q-2 21 7 37q9 18 20 33.5t25 29.5q35 38 73 71.5t80 62.5q3 2 6 5t7 5q16 8 24.5 21t15.5 30q17 42 32 83.5t28 84.5l14 46t15 46q0 5 1 9q-6 -3 -8 -5q-21 -20 -42 -39.5t-43 -39.5
q-33 -29 -66.5 -57t-70.5 -53q-7 -6 -16 -11t-16 -8.5t-13.5 -6t-14 -4.5t-18.5 -4q-5 1 -11.5 2t-12.5 3q-16 10 -23 24.5t-9 32.5q-1 46 8 93q10 47 22.5 92.5t31.5 89.5q8 21 18.5 41.5t20.5 40.5q2 2 3.5 4t3.5 4q17 -3 14 -16q-2 -2 -2.5 -5t-2.5 -5q-26 -49 -43 -101
t-30 -106q-3 -13 -5 -25.5t-6 -25.5q-5 -16 -5 -32t-4 -33q-2 -11 0.5 -21t6.5 -20q1 -3 3.5 -5t4.5 -4q10 -5 18.5 -3t16.5 6q20 9 39 20.5t36 25.5q57 45 108.5 92.5t100.5 99.5q5 6 10 11l9 9q16 4 23 -4q11 -10 8 -22q-2 -11 -4 -20.5t-4 -20.5q-8 -33 -17.5 -66
t-20.5 -66l-33 -99q-2 -4 -3 -7.5t1 -8.5q-1 0 -1.5 -0.5t-1.5 -0.5zM229 -9q-2 -1 -3.5 -1t-3.5 -2q-36 -28 -69.5 -58t-64.5 -64q-9 -11 -17.5 -22.5t-16.5 -23.5q-6 -10 -9 -23q-4 -10 4 -15q18 -4 33.5 2t29.5 17q11 9 20 19t17 21q25 35 44.5 72t36.5 75q-1 0 -1 1v2z
M325 537q-11 -11 -21 -5q-5 3 -8.5 8t-1.5 13q4 8 10.5 9.5t14.5 3.5q14 -5 9 -17zM259 572l5 -5t7 -6q-2 -5 -3.5 -10t-3.5 -9q-12 -11 -21 -3q-11 9 -4 22q2 4 5 5t15 6z" />
    <glyph glyph-name="ydieresis" unicode="&#xff;" horiz-adv-x="350" 
d="M17 126q19 6 34.5 16t29.5 23q21 18 41.5 36t41.5 36q3 3 11 9h18q2 -2 3 -2.5t2 -1.5q7 -12 4 -27q-3 -11 -6.5 -25.5t-7.5 -30t-7.5 -30.5t-5.5 -26q-1 -3 -1.5 -6t1.5 -7q5 -2 8 1t6 5q22 14 43.5 29t43.5 29q14 9 29.5 17t32.5 13q13 5 26 2q1 -2 1.5 -5t2.5 -6
q-2 -2 -3 -2.5l-3 -1.5q-20 -5 -38.5 -14t-35.5 -20q-68 -42 -130 -91q-4 -9 -7.5 -18.5t-7.5 -18.5q-10 -26 -22 -50t-24 -47q-8 -16 -18 -29.5t-21 -27.5q-9 -12 -20 -21t-27 -16q-4 -1 -9 -1.5t-10 0.5q-26 2 -28 28q0 7 0.5 13t3.5 12q6 11 11 21.5t12 21.5q20 32 45 58
t54 50q10 9 20.5 17t21.5 16q7 19 14.5 42t13.5 45t10 41t4 30q-10 -5 -17 -11.5t-15 -13.5q-17 -15 -34.5 -29.5t-35.5 -28.5q-8 -6 -13.5 -9.5t-10.5 -6t-11.5 -4.5t-16.5 -5q-4 0 -5 1q-5 2 -8 3l-6 2q-10 10 -11.5 21t0.5 22q3 13 7 25t9 25q4 11 12 13q10 -1 10 -11
q-1 -5 -2 -10.5t-3 -10.5q-2 -11 -5.5 -21.5t-5.5 -21.5q-1 -3 -0.5 -6.5t5.5 -8.5zM-13 -159q8 -3 14 -1t11 6q20 17 35 38q20 27 34.5 56.5t28.5 59.5q1 2 1 10q-13 -11 -24.5 -22.5l-22.5 -22.5q-16 -16 -30 -32.5t-26 -35.5q-13 -20 -21 -44q-1 -3 -0.5 -5.5t0.5 -6.5z
M140 290q-11 -11 -21 -5q-5 3 -8.5 8t-1.5 13q4 8 10.5 9.5t14.5 3.5q14 -5 9 -17zM74 325l5 -5t7 -6q-2 -5 -3.5 -10t-3.5 -9q-12 -11 -21 -3q-11 9 -4 22q2 4 5 5t15 6z" />
    <glyph glyph-name="Agrave" unicode="&#xc0;" 
d="M777 603q17 -6 22 -12t6 -21q1 -20 -2 -38.5t-7 -37.5q-12 -57 -26.5 -111.5t-29.5 -110.5l-3 -18q-1 -1 2 -6q5 0 15 2q9 0 14 1q4 0 8 1t8 1q14 1 26.5 1.5t26.5 0.5q19 0 30 -16q3 -6 3 -12q-4 -7 -10 -4l-15 9q-12 1 -20 1t-19 -1t-29 -4t-49 -8q-2 -3 -3.5 -6.5
t-2.5 -7.5q-11 -38 -20 -74.5t-20 -74.5q-17 -65 -34 -129t-37 -128q-3 -8 -6 -16.5t-7 -17.5q-1 -3 -3 -5.5t-4 -6.5h-15q-2 2 -3.5 5t-3.5 5l2 6q8 11 13 27q8 29 16 57t16 57q17 67 34.5 134t35.5 135q2 7 3 14t3 14q-5 5 -9.5 4.5t-9.5 -2.5q-38 -8 -75 -16.5t-75 -18.5
q-20 -5 -39.5 -10.5t-39.5 -10.5q-7 -7 -10 -11q-22 -33 -44 -66.5t-40 -69.5q-4 -8 -8 -16.5t-2 -19.5q-12 -6 -20 5q-4 9 1 21q7 19 16 37t19 35q7 12 14.5 24.5t15.5 24.5q3 4 5.5 8.5t5.5 9.5q-3 0 -5 0.5t-4 0.5q-29 -9 -57.5 -18t-57.5 -19q-50 -16 -98 -33t-96 -37
q-10 -5 -19.5 -8.5t-18.5 -8.5q-5 -3 -10 -7t-12 -9q-12 -3 -19 12q2 8 7.5 12t11.5 7q21 12 42 21q74 32 148.5 58.5t151.5 49.5q17 5 33 10.5t32 10.5q11 16 21 30.5t21 29.5q40 57 82 112t87 109q23 29 47.5 57t49.5 56q8 10 18.5 18t24.5 13zM699 241q2 3 3 5l2 4
q6 25 12 49t13 49q25 96 45 192q3 15 2 29l-8 -4q-6 -6 -12 -11.5t-12 -11.5q-27 -32 -54 -63t-53 -63q-37 -47 -72.5 -93.5t-71.5 -94.5q-6 -8 -12.5 -17t-11.5 -20q29 7 57 13.5t56 12.5q29 7 58 12.5t59 11.5zM853 623q-4 -2 -7.5 -2.5t-7.5 -2.5q-3 2 -7 4.5t-6 4.5
q-7 8 -14 17t-14 17q-12 16 -24 31.5t-24 32.5q-4 5 -5 11q2 5 5.5 6t8.5 2q9 -4 14.5 -11t10.5 -14q11 -16 22 -31t22 -31q4 -4 7 -8t6 -7q2 -3 6 -5t8 -5q0 -6 -1 -9z" />
    <glyph glyph-name="Aacute" unicode="&#xc1;" 
d="M777 603q17 -6 22 -12t6 -21q1 -20 -2 -38.5t-7 -37.5q-12 -57 -26.5 -111.5t-29.5 -110.5l-3 -18q-1 -1 2 -6q5 0 15 2q9 0 14 1q4 0 8 1t8 1q14 1 26.5 1.5t26.5 0.5q19 0 30 -16q3 -6 3 -12q-4 -7 -10 -4l-15 9q-12 1 -20 1t-19 -1t-29 -4t-49 -8q-2 -3 -3.5 -6.5
t-2.5 -7.5q-11 -38 -20 -74.5t-20 -74.5q-17 -65 -34 -129t-37 -128q-3 -8 -6 -16.5t-7 -17.5q-1 -3 -3 -5.5t-4 -6.5h-15q-2 2 -3.5 5t-3.5 5l2 6q8 11 13 27q8 29 16 57t16 57q17 67 34.5 134t35.5 135q2 7 3 14t3 14q-5 5 -9.5 4.5t-9.5 -2.5q-38 -8 -75 -16.5t-75 -18.5
q-20 -5 -39.5 -10.5t-39.5 -10.5q-7 -7 -10 -11q-22 -33 -44 -66.5t-40 -69.5q-4 -8 -8 -16.5t-2 -19.5q-12 -6 -20 5q-4 9 1 21q7 19 16 37t19 35q7 12 14.5 24.5t15.5 24.5q3 4 5.5 8.5t5.5 9.5q-3 0 -5 0.5t-4 0.5q-29 -9 -57.5 -18t-57.5 -19q-50 -16 -98 -33t-96 -37
q-10 -5 -19.5 -8.5t-18.5 -8.5q-5 -3 -10 -7t-12 -9q-12 -3 -19 12q2 8 7.5 12t11.5 7q21 12 42 21q74 32 148.5 58.5t151.5 49.5q17 5 33 10.5t32 10.5q11 16 21 30.5t21 29.5q40 57 82 112t87 109q23 29 47.5 57t49.5 56q8 10 18.5 18t24.5 13zM699 241q2 3 3 5l2 4
q6 25 12 49t13 49q25 96 45 192q3 15 2 29l-8 -4q-6 -6 -12 -11.5t-12 -11.5q-27 -32 -54 -63t-53 -63q-37 -47 -72.5 -93.5t-71.5 -94.5q-6 -8 -12.5 -17t-11.5 -20q29 7 57 13.5t56 12.5q29 7 58 12.5t59 11.5zM871 744q-16 -16 -34 -28.5t-34 -26.5q-16 -15 -32 -29
l-32 -28q-16 -3 -17 14q2 3 4.5 7t5.5 8q23 26 49.5 46t54.5 40q5 3 10 6.5t11 3.5q11 -1 14 -13z" />
    <glyph glyph-name="Acircumflex" unicode="&#xc2;" 
d="M777 603q17 -6 22 -12t6 -21q1 -20 -2 -38.5t-7 -37.5q-12 -57 -26.5 -111.5t-29.5 -110.5l-3 -18q-1 -1 2 -6q5 0 15 2q9 0 14 1q4 0 8 1t8 1q14 1 26.5 1.5t26.5 0.5q19 0 30 -16q3 -6 3 -12q-4 -7 -10 -4l-15 9q-12 1 -20 1t-19 -1t-29 -4t-49 -8q-2 -3 -3.5 -6.5
t-2.5 -7.5q-11 -38 -20 -74.5t-20 -74.5q-17 -65 -34 -129t-37 -128q-3 -8 -6 -16.5t-7 -17.5q-1 -3 -3 -5.5t-4 -6.5h-15q-2 2 -3.5 5t-3.5 5l2 6q8 11 13 27q8 29 16 57t16 57q17 67 34.5 134t35.5 135q2 7 3 14t3 14q-5 5 -9.5 4.5t-9.5 -2.5q-38 -8 -75 -16.5t-75 -18.5
q-20 -5 -39.5 -10.5t-39.5 -10.5q-7 -7 -10 -11q-22 -33 -44 -66.5t-40 -69.5q-4 -8 -8 -16.5t-2 -19.5q-12 -6 -20 5q-4 9 1 21q7 19 16 37t19 35q7 12 14.5 24.5t15.5 24.5q3 4 5.5 8.5t5.5 9.5q-3 0 -5 0.5t-4 0.5q-29 -9 -57.5 -18t-57.5 -19q-50 -16 -98 -33t-96 -37
q-10 -5 -19.5 -8.5t-18.5 -8.5q-5 -3 -10 -7t-12 -9q-12 -3 -19 12q2 8 7.5 12t11.5 7q21 12 42 21q74 32 148.5 58.5t151.5 49.5q17 5 33 10.5t32 10.5q11 16 21 30.5t21 29.5q40 57 82 112t87 109q23 29 47.5 57t49.5 56q8 10 18.5 18t24.5 13zM699 241q2 3 3 5l2 4
q6 25 12 49t13 49q25 96 45 192q3 15 2 29l-8 -4q-6 -6 -12 -11.5t-12 -11.5q-27 -32 -54 -63t-53 -63q-37 -47 -72.5 -93.5t-71.5 -94.5q-6 -8 -12.5 -17t-11.5 -20q29 7 57 13.5t56 12.5q29 7 58 12.5t59 11.5zM796 738q12 -2 16.5 -9t7.5 -15q5 -17 10 -34.5t8 -34.5
l2 -12t2 -11q-8 -8 -16 -1q-8 5 -10 18q-6 32 -18 64q-5 0 -7.5 -3.5t-5.5 -5.5q-4 -3 -7 -6.5t-6 -7.5q-3 -3 -5.5 -6t-5.5 -6q-3 -4 -6 -7.5t-7 -6.5q-2 -2 -5 -2t-6 -1q-2 3 -3.5 6t-3.5 5v4q2 4 4.5 8.5t5.5 7.5q14 14 26 30t30 26z" />
    <glyph glyph-name="Atilde" unicode="&#xc3;" 
d="M777 603q17 -6 22 -12t6 -21q1 -20 -2 -38.5t-7 -37.5q-12 -57 -26.5 -111.5t-29.5 -110.5l-3 -18q-1 -1 2 -6q5 0 15 2q9 0 14 1q4 0 8 1t8 1q14 1 26.5 1.5t26.5 0.5q19 0 30 -16q3 -6 3 -12q-4 -7 -10 -4l-15 9q-12 1 -20 1t-19 -1t-29 -4t-49 -8q-2 -3 -3.5 -6.5
t-2.5 -7.5q-11 -38 -20 -74.5t-20 -74.5q-17 -65 -34 -129t-37 -128q-3 -8 -6 -16.5t-7 -17.5q-1 -3 -3 -5.5t-4 -6.5h-15q-2 2 -3.5 5t-3.5 5l2 6q8 11 13 27q8 29 16 57t16 57q17 67 34.5 134t35.5 135q2 7 3 14t3 14q-5 5 -9.5 4.5t-9.5 -2.5q-38 -8 -75 -16.5t-75 -18.5
q-20 -5 -39.5 -10.5t-39.5 -10.5q-7 -7 -10 -11q-22 -33 -44 -66.5t-40 -69.5q-4 -8 -8 -16.5t-2 -19.5q-12 -6 -20 5q-4 9 1 21q7 19 16 37t19 35q7 12 14.5 24.5t15.5 24.5q3 4 5.5 8.5t5.5 9.5q-3 0 -5 0.5t-4 0.5q-29 -9 -57.5 -18t-57.5 -19q-50 -16 -98 -33t-96 -37
q-10 -5 -19.5 -8.5t-18.5 -8.5q-5 -3 -10 -7t-12 -9q-12 -3 -19 12q2 8 7.5 12t11.5 7q21 12 42 21q74 32 148.5 58.5t151.5 49.5q17 5 33 10.5t32 10.5q11 16 21 30.5t21 29.5q40 57 82 112t87 109q23 29 47.5 57t49.5 56q8 10 18.5 18t24.5 13zM699 241q2 3 3 5l2 4
q6 25 12 49t13 49q25 96 45 192q3 15 2 29l-8 -4q-6 -6 -12 -11.5t-12 -11.5q-27 -32 -54 -63t-53 -63q-37 -47 -72.5 -93.5t-71.5 -94.5q-6 -8 -12.5 -17t-11.5 -20q29 7 57 13.5t56 12.5q29 7 58 12.5t59 11.5zM751 674q-14 -2 -23 -9t-19 -14q-2 2 -5 3.5t-5 3.5
q-1 10 4 15.5t11 10.5q26 21 53 5q7 -4 13 -8t13 -8q13 -8 26 -1q9 5 18.5 9t18.5 9q8 5 16.5 9.5t17.5 6.5q6 -4 7 -6t3 -10q-12 -8 -23.5 -17.5t-24.5 -17.5q-5 -5 -11.5 -7t-13.5 -4q-8 -4 -21 0q-15 4 -30 14q-6 5 -12.5 8.5t-12.5 7.5z" />
    <glyph glyph-name="Adieresis" unicode="&#xc4;" 
d="M777 603q17 -6 22 -12t6 -21q1 -20 -2 -38.5t-7 -37.5q-12 -57 -26.5 -111.5t-29.5 -110.5l-3 -18q-1 -1 2 -6q5 0 15 2q9 0 14 1q4 0 8 1t8 1q14 1 26.5 1.5t26.5 0.5q19 0 30 -16q3 -6 3 -12q-4 -7 -10 -4l-15 9q-12 1 -20 1t-19 -1t-29 -4t-49 -8q-2 -3 -3.5 -6.5
t-2.5 -7.5q-11 -38 -20 -74.5t-20 -74.5q-17 -65 -34 -129t-37 -128q-3 -8 -6 -16.5t-7 -17.5q-1 -3 -3 -5.5t-4 -6.5h-15q-2 2 -3.5 5t-3.5 5l2 6q8 11 13 27q8 29 16 57t16 57q17 67 34.5 134t35.5 135q2 7 3 14t3 14q-5 5 -9.5 4.5t-9.5 -2.5q-38 -8 -75 -16.5t-75 -18.5
q-20 -5 -39.5 -10.5t-39.5 -10.5q-7 -7 -10 -11q-22 -33 -44 -66.5t-40 -69.5q-4 -8 -8 -16.5t-2 -19.5q-12 -6 -20 5q-4 9 1 21q7 19 16 37t19 35q7 12 14.5 24.5t15.5 24.5q3 4 5.5 8.5t5.5 9.5q-3 0 -5 0.5t-4 0.5q-29 -9 -57.5 -18t-57.5 -19q-50 -16 -98 -33t-96 -37
q-10 -5 -19.5 -8.5t-18.5 -8.5q-5 -3 -10 -7t-12 -9q-12 -3 -19 12q2 8 7.5 12t11.5 7q21 12 42 21q74 32 148.5 58.5t151.5 49.5q17 5 33 10.5t32 10.5q11 16 21 30.5t21 29.5q40 57 82 112t87 109q23 29 47.5 57t49.5 56q8 10 18.5 18t24.5 13zM699 241q2 3 3 5l2 4
q6 25 12 49t13 49q25 96 45 192q3 15 2 29l-8 -4q-6 -6 -12 -11.5t-12 -11.5q-27 -32 -54 -63t-53 -63q-37 -47 -72.5 -93.5t-71.5 -94.5q-6 -8 -12.5 -17t-11.5 -20q29 7 57 13.5t56 12.5q29 7 58 12.5t59 11.5zM839 648q-11 -11 -21 -5q-5 3 -8.5 8t-1.5 13q4 8 10.5 9.5
t14.5 3.5q14 -5 9 -17zM773 683l5 -5t7 -6q-2 -5 -3.5 -10t-3.5 -9q-12 -11 -21 -3q-11 9 -4 22q2 4 5 5t15 6z" />
    <glyph glyph-name="Aring" unicode="&#xc5;" 
d="M777 603q17 -6 22 -12t6 -21q1 -20 -2 -38.5t-7 -37.5q-12 -57 -26.5 -111.5t-29.5 -110.5l-3 -18q-1 -1 2 -6q5 0 15 2q9 0 14 1q4 0 8 1t8 1q14 1 26.5 1.5t26.5 0.5q19 0 30 -16q3 -6 3 -12q-4 -7 -10 -4l-15 9q-12 1 -20 1t-19 -1t-29 -4t-49 -8q-2 -3 -3.5 -6.5
t-2.5 -7.5q-11 -38 -20 -74.5t-20 -74.5q-17 -65 -34 -129t-37 -128q-3 -8 -6 -16.5t-7 -17.5q-1 -3 -3 -5.5t-4 -6.5h-15q-2 2 -3.5 5t-3.5 5l2 6q8 11 13 27q8 29 16 57t16 57q17 67 34.5 134t35.5 135q2 7 3 14t3 14q-5 5 -9.5 4.5t-9.5 -2.5q-38 -8 -75 -16.5t-75 -18.5
q-20 -5 -39.5 -10.5t-39.5 -10.5q-7 -7 -10 -11q-22 -33 -44 -66.5t-40 -69.5q-4 -8 -8 -16.5t-2 -19.5q-12 -6 -20 5q-4 9 1 21q7 19 16 37t19 35q7 12 14.5 24.5t15.5 24.5q3 4 5.5 8.5t5.5 9.5q-3 0 -5 0.5t-4 0.5q-29 -9 -57.5 -18t-57.5 -19q-50 -16 -98 -33t-96 -37
q-10 -5 -19.5 -8.5t-18.5 -8.5q-5 -3 -10 -7t-12 -9q-12 -3 -19 12q2 8 7.5 12t11.5 7q21 12 42 21q74 32 148.5 58.5t151.5 49.5q17 5 33 10.5t32 10.5q11 16 21 30.5t21 29.5q40 57 82 112t87 109q23 29 47.5 57t49.5 56q8 10 18.5 18t24.5 13zM699 241q2 3 3 5l2 4
q6 25 12 49t13 49q25 96 45 192q3 15 2 29l-8 -4q-6 -6 -12 -11.5t-12 -11.5q-27 -32 -54 -63t-53 -63q-37 -47 -72.5 -93.5t-71.5 -94.5q-6 -8 -12.5 -17t-11.5 -20q29 7 57 13.5t56 12.5q29 7 58 12.5t59 11.5zM763 589q-2 5 -3.5 10.5t-3.5 10.5q3 24 14 43t28 36
q23 22 51 19q13 -5 20 -19q11 -19 3 -39q-11 -27 -30 -48q-7 -8 -15 -12.5t-17 -8.5q-13 -5 -24.5 -4t-22.5 12zM825 680q-13 -11 -21.5 -23.5t-15.5 -26.5q-2 -5 -3 -10.5t-3 -10.5q0 -2 1 -5t2 -5q16 1 26.5 9t18.5 20q8 13 15 26t3 30q-7 -2 -12.5 -2.5t-10.5 -1.5z" />
    <glyph glyph-name="Ccedilla" unicode="&#xc7;" horiz-adv-x="367" 
d="M36 -74q11 -3 20 -1t17 7q37 18 71 48q33 27 64.5 56t62.5 58q23 22 45 43.5t44 42.5q3 3 7 5q12 3 16 -6q0 -4 -1 -5q-4 -5 -7.5 -9.5t-8.5 -8.5q-34 -33 -67 -66.5t-67 -65.5q-25 -23 -49.5 -45.5t-52.5 -42.5q-20 -13 -40 -23t-43 -14q-1 1 -5 1q-24 4 -33 20t-9 36
q0 21 4 41t9 40q11 38 24.5 73.5t29.5 70.5q21 47 46 91t55 86q39 54 89 98q7 7 14.5 12.5t15.5 11.5q9 5 18 9.5t20 7.5q23 6 40.5 -8t13.5 -41q-1 -11 -4.5 -21t-8.5 -21q-3 -6 -5.5 -12t-5.5 -14q-10 -7 -19 4l3 12l15 39q7 16 4 33q-6 12 -17 10q-9 0 -16 -3
q-11 -5 -22 -11q-37 -26 -66 -58q-57 -63 -96.5 -134t-70.5 -149q-10 -25 -18 -50.5t-16 -51.5q-5 -18 -7.5 -36t-1.5 -37q1 -6 2 -11.5t7 -10.5zM-9 -233q6 4 10 6.5t9 5.5q5 -3 8.5 -5.5t7.5 -5.5q13 5 22.5 12.5t13.5 22.5q-2 7 -3.5 14.5t-8.5 14.5q-6 1 -12 1.5
t-13 2.5q-2 4 -4 7.5t-2 7.5q0 18 4.5 34.5t12.5 33.5q2 3 8 7q6 -2 7.5 -3t5.5 -6q0 -1 0.5 -2t-0.5 -3q-4 -13 -7.5 -26t-4.5 -27q23 -9 31.5 -26t10.5 -39q1 -23 -20 -41q-5 -3 -9 -6t-8 -5q-17 -5 -37 -2q-12 3 -16 10q-2 3 -3 7.5t-3 9.5z" />
    <glyph glyph-name="Egrave" unicode="&#xc8;" horiz-adv-x="409" 
d="M473 587q2 -4 6 -8q-2 -2 -3 -4t-3 -4q-78 -11 -155 -21t-154 -26q-5 -5 -6 -11t-3 -12q-10 -52 -20.5 -103.5t-23.5 -103.5q-1 -3 -1 -6.5t3 -7.5q11 4 23 7t23 7q23 7 45 13t45 13q15 4 29 9.5t27 13.5q3 2 6 2.5t6 2.5q5 -5 6 -6.5t3 -8.5q-2 -2 -4.5 -3.5t-5.5 -3.5
q-17 -12 -36.5 -19t-39.5 -12l-111 -33q-7 -2 -13.5 -4.5t-13.5 -7.5q-2 -8 -4 -17l-4 -18q-12 -58 -24.5 -115t-23.5 -114q-2 -8 -2 -16.5t-1 -16.5q0 -2 0.5 -4.5t0.5 -4.5q6 -5 14 -1q9 4 17.5 8t17.5 9q45 26 89 51.5t88 54.5q13 9 33 24.5t40 33t38 34t28 28.5
q15 6 20 -6q-3 -14 -16 -26q-5 -5 -16.5 -16t-24.5 -23.5t-25 -23.5t-18 -15q-22 -16 -45 -31.5t-46 -30.5q-27 -17 -54.5 -34t-55.5 -34q-11 -7 -22.5 -13t-23.5 -12q-26 -13 -51 -6q-14 8 -17.5 21t-1.5 27q1 19 6 41q11 57 23 114t23 115v2q-11 0 -20.5 -4t-33.5 -18
q-13 5 -9 18q14 12 31.5 19.5t36.5 15.5l4 8t3 9q8 29 14.5 58.5t13.5 58.5q5 26 11 50.5t11 49.5v5q-4 5 -9.5 4t-11.5 3q-1 1 -5 7q2 8 7 12t11 6q8 2 14.5 6t11.5 12q5 -2 10 -2.5t11 -2.5q14 2 28.5 4.5t29.5 4.5l54 8t55 7q17 2 32.5 4t32.5 4q15 2 29.5 3t28.5 2
q4 1 8.5 0.5t9.5 -0.5zM308 619q-4 -2 -7.5 -2.5t-7.5 -2.5q-3 2 -7 4.5t-6 4.5q-7 8 -14 17t-14 17q-12 16 -24 31.5t-24 32.5q-4 5 -5 11q2 5 5.5 6t8.5 2q9 -4 14.5 -11t10.5 -14q11 -16 22 -31t22 -31q4 -4 7 -8t6 -7q2 -3 6 -5t8 -5q0 -6 -1 -9z" />
    <glyph glyph-name="Eacute" unicode="&#xc9;" horiz-adv-x="409" 
d="M473 587q2 -4 6 -8q-2 -2 -3 -4t-3 -4q-78 -11 -155 -21t-154 -26q-5 -5 -6 -11t-3 -12q-10 -52 -20.5 -103.5t-23.5 -103.5q-1 -3 -1 -6.5t3 -7.5q11 4 23 7t23 7q23 7 45 13t45 13q15 4 29 9.5t27 13.5q3 2 6 2.5t6 2.5q5 -5 6 -6.5t3 -8.5q-2 -2 -4.5 -3.5t-5.5 -3.5
q-17 -12 -36.5 -19t-39.5 -12l-111 -33q-7 -2 -13.5 -4.5t-13.5 -7.5q-2 -8 -4 -17l-4 -18q-12 -58 -24.5 -115t-23.5 -114q-2 -8 -2 -16.5t-1 -16.5q0 -2 0.5 -4.5t0.5 -4.5q6 -5 14 -1q9 4 17.5 8t17.5 9q45 26 89 51.5t88 54.5q13 9 33 24.5t40 33t38 34t28 28.5
q15 6 20 -6q-3 -14 -16 -26q-5 -5 -16.5 -16t-24.5 -23.5t-25 -23.5t-18 -15q-22 -16 -45 -31.5t-46 -30.5q-27 -17 -54.5 -34t-55.5 -34q-11 -7 -22.5 -13t-23.5 -12q-26 -13 -51 -6q-14 8 -17.5 21t-1.5 27q1 19 6 41q11 57 23 114t23 115v2q-11 0 -20.5 -4t-33.5 -18
q-13 5 -9 18q14 12 31.5 19.5t36.5 15.5l4 8t3 9q8 29 14.5 58.5t13.5 58.5q5 26 11 50.5t11 49.5v5q-4 5 -9.5 4t-11.5 3q-1 1 -5 7q2 8 7 12t11 6q8 2 14.5 6t11.5 12q5 -2 10 -2.5t11 -2.5q14 2 28.5 4.5t29.5 4.5l54 8t55 7q17 2 32.5 4t32.5 4q15 2 29.5 3t28.5 2
q4 1 8.5 0.5t9.5 -0.5zM384 718q-16 -16 -34 -28.5t-34 -26.5q-16 -15 -32 -29l-32 -28q-16 -3 -17 14q2 3 4.5 7t5.5 8q23 26 49.5 46t54.5 40q5 3 10 6.5t11 3.5q11 -1 14 -13z" />
    <glyph glyph-name="Ecircumflex" unicode="&#xca;" horiz-adv-x="409" 
d="M473 587q2 -4 6 -8q-2 -2 -3 -4t-3 -4q-78 -11 -155 -21t-154 -26q-5 -5 -6 -11t-3 -12q-10 -52 -20.5 -103.5t-23.5 -103.5q-1 -3 -1 -6.5t3 -7.5q11 4 23 7t23 7q23 7 45 13t45 13q15 4 29 9.5t27 13.5q3 2 6 2.5t6 2.5q5 -5 6 -6.5t3 -8.5q-2 -2 -4.5 -3.5t-5.5 -3.5
q-17 -12 -36.5 -19t-39.5 -12l-111 -33q-7 -2 -13.5 -4.5t-13.5 -7.5q-2 -8 -4 -17l-4 -18q-12 -58 -24.5 -115t-23.5 -114q-2 -8 -2 -16.5t-1 -16.5q0 -2 0.5 -4.5t0.5 -4.5q6 -5 14 -1q9 4 17.5 8t17.5 9q45 26 89 51.5t88 54.5q13 9 33 24.5t40 33t38 34t28 28.5
q15 6 20 -6q-3 -14 -16 -26q-5 -5 -16.5 -16t-24.5 -23.5t-25 -23.5t-18 -15q-22 -16 -45 -31.5t-46 -30.5q-27 -17 -54.5 -34t-55.5 -34q-11 -7 -22.5 -13t-23.5 -12q-26 -13 -51 -6q-14 8 -17.5 21t-1.5 27q1 19 6 41q11 57 23 114t23 115v2q-11 0 -20.5 -4t-33.5 -18
q-13 5 -9 18q14 12 31.5 19.5t36.5 15.5l4 8t3 9q8 29 14.5 58.5t13.5 58.5q5 26 11 50.5t11 49.5v5q-4 5 -9.5 4t-11.5 3q-1 1 -5 7q2 8 7 12t11 6q8 2 14.5 6t11.5 12q5 -2 10 -2.5t11 -2.5q14 2 28.5 4.5t29.5 4.5l54 8t55 7q17 2 32.5 4t32.5 4q15 2 29.5 3t28.5 2
q4 1 8.5 0.5t9.5 -0.5zM293 736q12 -2 16.5 -9t7.5 -15q5 -17 10 -34.5t8 -34.5l2 -12t2 -11q-8 -8 -16 -1q-8 5 -10 18q-6 32 -18 64q-5 0 -7.5 -3.5t-5.5 -5.5q-4 -3 -7 -6.5t-6 -7.5q-3 -3 -5.5 -6t-5.5 -6q-3 -4 -6 -7.5t-7 -6.5q-2 -2 -5 -2t-6 -1q-2 3 -3.5 6t-3.5 5
v4q2 4 4.5 8.5t5.5 7.5q14 14 26 30t30 26z" />
    <glyph glyph-name="Edieresis" unicode="&#xcb;" horiz-adv-x="409" 
d="M473 587q2 -4 6 -8q-2 -2 -3 -4t-3 -4q-78 -11 -155 -21t-154 -26q-5 -5 -6 -11t-3 -12q-10 -52 -20.5 -103.5t-23.5 -103.5q-1 -3 -1 -6.5t3 -7.5q11 4 23 7t23 7q23 7 45 13t45 13q15 4 29 9.5t27 13.5q3 2 6 2.5t6 2.5q5 -5 6 -6.5t3 -8.5q-2 -2 -4.5 -3.5t-5.5 -3.5
q-17 -12 -36.5 -19t-39.5 -12l-111 -33q-7 -2 -13.5 -4.5t-13.5 -7.5q-2 -8 -4 -17l-4 -18q-12 -58 -24.5 -115t-23.5 -114q-2 -8 -2 -16.5t-1 -16.5q0 -2 0.5 -4.5t0.5 -4.5q6 -5 14 -1q9 4 17.5 8t17.5 9q45 26 89 51.5t88 54.5q13 9 33 24.5t40 33t38 34t28 28.5
q15 6 20 -6q-3 -14 -16 -26q-5 -5 -16.5 -16t-24.5 -23.5t-25 -23.5t-18 -15q-22 -16 -45 -31.5t-46 -30.5q-27 -17 -54.5 -34t-55.5 -34q-11 -7 -22.5 -13t-23.5 -12q-26 -13 -51 -6q-14 8 -17.5 21t-1.5 27q1 19 6 41q11 57 23 114t23 115v2q-11 0 -20.5 -4t-33.5 -18
q-13 5 -9 18q14 12 31.5 19.5t36.5 15.5l4 8t3 9q8 29 14.5 58.5t13.5 58.5q5 26 11 50.5t11 49.5v5q-4 5 -9.5 4t-11.5 3q-1 1 -5 7q2 8 7 12t11 6q8 2 14.5 6t11.5 12q5 -2 10 -2.5t11 -2.5q14 2 28.5 4.5t29.5 4.5l54 8t55 7q17 2 32.5 4t32.5 4q15 2 29.5 3t28.5 2
q4 1 8.5 0.5t9.5 -0.5zM332 626q-11 -11 -21 -5q-5 3 -8.5 8t-1.5 13q4 8 10.5 9.5t14.5 3.5q14 -5 9 -17zM266 661l5 -5t7 -6q-2 -5 -3.5 -10t-3.5 -9q-12 -11 -21 -3q-11 9 -4 22q2 4 5 5t15 6z" />
    <glyph glyph-name="Igrave" unicode="&#xcc;" horiz-adv-x="258" 
d="M268 566q-5 -20 -9.5 -39t-8.5 -39q-9 -40 -17.5 -79.5t-17.5 -79.5q-12 -52 -24.5 -104t-24.5 -104q-7 -29 -13.5 -57.5t-12.5 -57.5q-1 -5 -1.5 -8.5t1.5 -7.5q2 -3 5 -2.5t5 1.5q11 5 14.5 6.5t14.5 6.5q3 1 6.5 2t6.5 1q5 1 9 0.5t10 -0.5q2 -1 6 -5q-2 -7 -3 -7
q-6 -4 -12 -7l-12 -6q-38 -15 -73.5 -34t-69.5 -41q-9 -6 -16.5 -12.5t-15.5 -13.5q-8 -2 -10.5 2t-4.5 10q3 12 11.5 20t18.5 15q11 8 22 14t23 13q6 4 12.5 7t11.5 10q5 22 9.5 43t9.5 43q9 40 17.5 79t17.5 79q11 48 21.5 94t21.5 93q8 35 16.5 70t16.5 70q1 3 0.5 6
t-0.5 8q-12 -1 -22 -4t-21 -5q-42 -11 -81 -27q-11 -5 -20 -9.5t-17 -13.5q-8 3 -9 5t-1 13q4 7 9.5 10.5t11.5 7.5q14 8 29.5 14t31.5 11l48 12t49 13l12 18q8 2 10.5 -2.5t5.5 -6.5q4 -2 6 -2l12 2l12 2q26 5 52.5 9t53.5 5h11.5t10.5 -1q14 0 24 -12q7 -8 -1 -16
q-5 2 -10.5 5t-13.5 6q-42 -3 -77 -7t-77 -16zM316 651q-4 -2 -7.5 -2.5t-7.5 -2.5q-3 2 -7 4.5t-6 4.5q-7 8 -14 17t-14 17q-12 16 -24 31.5t-24 32.5q-4 5 -5 11q2 5 5.5 6t8.5 2q9 -4 14.5 -11t10.5 -14q11 -16 22 -31t22 -31q4 -4 7 -8t6 -7q2 -3 6 -5t8 -5q0 -6 -1 -9z
" />
    <glyph glyph-name="Iacute" unicode="&#xcd;" horiz-adv-x="258" 
d="M268 566q-5 -20 -9.5 -39t-8.5 -39q-9 -40 -17.5 -79.5t-17.5 -79.5q-12 -52 -24.5 -104t-24.5 -104q-7 -29 -13.5 -57.5t-12.5 -57.5q-1 -5 -1.5 -8.5t1.5 -7.5q2 -3 5 -2.5t5 1.5q11 5 14.5 6.5t14.5 6.5q3 1 6.5 2t6.5 1q5 1 9 0.5t10 -0.5q2 -1 6 -5q-2 -7 -3 -7
q-6 -4 -12 -7l-12 -6q-38 -15 -73.5 -34t-69.5 -41q-9 -6 -16.5 -12.5t-15.5 -13.5q-8 -2 -10.5 2t-4.5 10q3 12 11.5 20t18.5 15q11 8 22 14t23 13q6 4 12.5 7t11.5 10q5 22 9.5 43t9.5 43q9 40 17.5 79t17.5 79q11 48 21.5 94t21.5 93q8 35 16.5 70t16.5 70q1 3 0.5 6
t-0.5 8q-12 -1 -22 -4t-21 -5q-42 -11 -81 -27q-11 -5 -20 -9.5t-17 -13.5q-8 3 -9 5t-1 13q4 7 9.5 10.5t11.5 7.5q14 8 29.5 14t31.5 11l48 12t49 13l12 18q8 2 10.5 -2.5t5.5 -6.5q4 -2 6 -2l12 2l12 2q26 5 52.5 9t53.5 5h11.5t10.5 -1q14 0 24 -12q7 -8 -1 -16
q-5 2 -10.5 5t-13.5 6q-42 -3 -77 -7t-77 -16zM376 752q-16 -16 -34 -28.5t-34 -26.5q-16 -15 -32 -29l-32 -28q-16 -3 -17 14q2 3 4.5 7t5.5 8q23 26 49.5 46t54.5 40q5 3 10 6.5t11 3.5q11 -1 14 -13z" />
    <glyph glyph-name="Icircumflex" unicode="&#xce;" horiz-adv-x="258" 
d="M268 566q-5 -20 -9.5 -39t-8.5 -39q-9 -40 -17.5 -79.5t-17.5 -79.5q-12 -52 -24.5 -104t-24.5 -104q-7 -29 -13.5 -57.5t-12.5 -57.5q-1 -5 -1.5 -8.5t1.5 -7.5q2 -3 5 -2.5t5 1.5q11 5 14.5 6.5t14.5 6.5q3 1 6.5 2t6.5 1q5 1 9 0.5t10 -0.5q2 -1 6 -5q-2 -7 -3 -7
q-6 -4 -12 -7l-12 -6q-38 -15 -73.5 -34t-69.5 -41q-9 -6 -16.5 -12.5t-15.5 -13.5q-8 -2 -10.5 2t-4.5 10q3 12 11.5 20t18.5 15q11 8 22 14t23 13q6 4 12.5 7t11.5 10q5 22 9.5 43t9.5 43q9 40 17.5 79t17.5 79q11 48 21.5 94t21.5 93q8 35 16.5 70t16.5 70q1 3 0.5 6
t-0.5 8q-12 -1 -22 -4t-21 -5q-42 -11 -81 -27q-11 -5 -20 -9.5t-17 -13.5q-8 3 -9 5t-1 13q4 7 9.5 10.5t11.5 7.5q14 8 29.5 14t31.5 11l48 12t49 13l12 18q8 2 10.5 -2.5t5.5 -6.5q4 -2 6 -2l12 2l12 2q26 5 52.5 9t53.5 5h11.5t10.5 -1q14 0 24 -12q7 -8 -1 -16
q-5 2 -10.5 5t-13.5 6q-42 -3 -77 -7t-77 -16zM272 754q12 -2 16.5 -9t7.5 -15q5 -17 10 -34.5t8 -34.5l2 -12t2 -11q-8 -8 -16 -1q-8 5 -10 18q-6 32 -18 64q-5 0 -7.5 -3.5t-5.5 -5.5q-4 -3 -7 -6.5t-6 -7.5q-3 -3 -5.5 -6t-5.5 -6q-3 -4 -6 -7.5t-7 -6.5q-2 -2 -5 -2
t-6 -1q-2 3 -3.5 6t-3.5 5v4q2 4 4.5 8.5t5.5 7.5q14 14 26 30t30 26z" />
    <glyph glyph-name="Idieresis" unicode="&#xcf;" horiz-adv-x="258" 
d="M268 566q-5 -20 -9.5 -39t-8.5 -39q-9 -40 -17.5 -79.5t-17.5 -79.5q-12 -52 -24.5 -104t-24.5 -104q-7 -29 -13.5 -57.5t-12.5 -57.5q-1 -5 -1.5 -8.5t1.5 -7.5q2 -3 5 -2.5t5 1.5q11 5 14.5 6.5t14.5 6.5q3 1 6.5 2t6.5 1q5 1 9 0.5t10 -0.5q2 -1 6 -5q-2 -7 -3 -7
q-6 -4 -12 -7l-12 -6q-38 -15 -73.5 -34t-69.5 -41q-9 -6 -16.5 -12.5t-15.5 -13.5q-8 -2 -10.5 2t-4.5 10q3 12 11.5 20t18.5 15q11 8 22 14t23 13q6 4 12.5 7t11.5 10q5 22 9.5 43t9.5 43q9 40 17.5 79t17.5 79q11 48 21.5 94t21.5 93q8 35 16.5 70t16.5 70q1 3 0.5 6
t-0.5 8q-12 -1 -22 -4t-21 -5q-42 -11 -81 -27q-11 -5 -20 -9.5t-17 -13.5q-8 3 -9 5t-1 13q4 7 9.5 10.5t11.5 7.5q14 8 29.5 14t31.5 11l48 12t49 13l12 18q8 2 10.5 -2.5t5.5 -6.5q4 -2 6 -2l12 2l12 2q26 5 52.5 9t53.5 5h11.5t10.5 -1q14 0 24 -12q7 -8 -1 -16
q-5 2 -10.5 5t-13.5 6q-42 -3 -77 -7t-77 -16zM309 639q-11 -11 -21 -5q-5 3 -8.5 8t-1.5 13q4 8 10.5 9.5t14.5 3.5q14 -5 9 -17zM243 674l5 -5t7 -6q-2 -5 -3.5 -10t-3.5 -9q-12 -11 -21 -3q-11 9 -4 22q2 4 5 5t15 6z" />
    <glyph glyph-name="Ntilde" unicode="&#xd1;" horiz-adv-x="423" 
d="M280 -49q2 -9 -0.5 -15.5t-7.5 -11.5q-5 -6 -12.5 -6.5t-12.5 3.5q-12 11 -9 25q2 11 4.5 20.5t4.5 19.5q11 39 24 76.5t27 75.5q29 80 62 158.5t65 157.5q3 8 5.5 15t5.5 15q-3 0 -5 0.5t-4 -1.5q-8 -7 -17 -13t-17 -14q-26 -25 -52.5 -49t-51.5 -50q-50 -52 -97 -105.5
t-89 -112.5q-15 -20 -29 -40.5t-28 -40.5q-5 -6 -9.5 -12t-9.5 -12q-5 0 -8.5 -0.5t-7.5 -0.5q-5 5 -6 7q-5 5 -5.5 11.5t1.5 12.5q4 20 8 41.5t10 41.5q14 48 28.5 96t29.5 96l4 12t7 11q2 -1 3.5 -0.5t2.5 -1.5q5 -3 5 -9q0 -4 -1 -8l-2 -8q-14 -48 -27.5 -95t-27.5 -95
q-8 -26 -12 -51q-2 -4 -2.5 -8t4.5 -8q3 4 6 7t6 8q27 43 58.5 83t63.5 79q14 17 28 32l28 30q21 23 42 45.5t43 44.5q25 23 49.5 46.5t50.5 44.5q9 7 18 13t20 8q13 -8 16.5 -13.5t1.5 -16.5q-1 -7 -3 -13.5t-4 -13.5q-11 -31 -22.5 -61.5t-23.5 -61.5q-22 -55 -43.5 -109
t-43.5 -109q-13 -34 -25.5 -68t-23.5 -69q-2 -10 -4 -17q2 -4 5 -7.5t6 -8.5zM213 522q-14 -2 -23 -9t-19 -14q-2 2 -5 3.5t-5 3.5q-1 10 4 15.5t11 10.5q26 21 53 5q7 -4 13 -8t13 -8q13 -8 26 -1q9 5 18.5 9t18.5 9q8 5 16.5 9.5t17.5 6.5q6 -4 7 -6t3 -10
q-12 -8 -23.5 -17.5t-24.5 -17.5q-5 -5 -11.5 -7t-13.5 -4q-8 -4 -21 0q-15 4 -30 14q-6 5 -12.5 8.5t-12.5 7.5z" />
    <glyph glyph-name="Ograve" unicode="&#xd2;" horiz-adv-x="301" 
d="M182 490q5 -2 10.5 -2.5t13.5 -2.5q15 6 34 -4q9 -5 15 -13t10 -17q7 -18 11 -36t3 -36q-1 -44 -5 -86.5t-14 -84.5q-9 -36 -24 -68.5t-35 -63.5q-26 -41 -62 -74q-13 -15 -31 -26q-15 -9 -31.5 -13.5t-37.5 0.5q-31 14 -34 49q-4 22 -3.5 42.5t4.5 40.5q14 63 36 119
q21 58 46 114.5t56 111.5q5 9 10.5 18t13.5 18q2 4 5.5 7t8.5 7zM34 -9q6 -9 12 -11t13 0q16 4 29 13q26 16 44.5 36t34.5 43q28 40 47.5 83.5t28.5 92.5q3 20 6 39t4 39q6 47 -2 98q-2 11 -5.5 21t-11.5 18q-19 8 -28 -9q-3 -3 -4.5 -7t-7.5 -4q-3 2 -7.5 4.5t-9.5 4.5
q-8 -13 -14.5 -24.5t-11.5 -24.5q-26 -50 -48.5 -101t-41.5 -104q-10 -27 -18 -54t-13 -56q-2 -17 -3 -34.5t-1 -34.5q3 -14 8 -28zM285 512q-4 -2 -7.5 -2.5t-7.5 -2.5q-3 2 -7 4.5t-6 4.5q-7 8 -14 17t-14 17q-12 16 -24 31.5t-24 32.5q-4 5 -5 11q2 5 5.5 6t8.5 2
q9 -4 14.5 -11t10.5 -14q11 -16 22 -31t22 -31q4 -4 7 -8t6 -7q2 -3 6 -5t8 -5q0 -6 -1 -9z" />
    <glyph glyph-name="Oacute" unicode="&#xd3;" horiz-adv-x="301" 
d="M182 490q5 -2 10.5 -2.5t13.5 -2.5q15 6 34 -4q9 -5 15 -13t10 -17q7 -18 11 -36t3 -36q-1 -44 -5 -86.5t-14 -84.5q-9 -36 -24 -68.5t-35 -63.5q-26 -41 -62 -74q-13 -15 -31 -26q-15 -9 -31.5 -13.5t-37.5 0.5q-31 14 -34 49q-4 22 -3.5 42.5t4.5 40.5q14 63 36 119
q21 58 46 114.5t56 111.5q5 9 10.5 18t13.5 18q2 4 5.5 7t8.5 7zM34 -9q6 -9 12 -11t13 0q16 4 29 13q26 16 44.5 36t34.5 43q28 40 47.5 83.5t28.5 92.5q3 20 6 39t4 39q6 47 -2 98q-2 11 -5.5 21t-11.5 18q-19 8 -28 -9q-3 -3 -4.5 -7t-7.5 -4q-3 2 -7.5 4.5t-9.5 4.5
q-8 -13 -14.5 -24.5t-11.5 -24.5q-26 -50 -48.5 -101t-41.5 -104q-10 -27 -18 -54t-13 -56q-2 -17 -3 -34.5t-1 -34.5q3 -14 8 -28zM311 649q-16 -16 -34 -28.5t-34 -26.5q-16 -15 -32 -29l-32 -28q-16 -3 -17 14q2 3 4.5 7t5.5 8q23 26 49.5 46t54.5 40q5 3 10 6.5t11 3.5
q11 -1 14 -13z" />
    <glyph glyph-name="Ocircumflex" unicode="&#xd4;" horiz-adv-x="301" 
d="M182 490q5 -2 10.5 -2.5t13.5 -2.5q15 6 34 -4q9 -5 15 -13t10 -17q7 -18 11 -36t3 -36q-1 -44 -5 -86.5t-14 -84.5q-9 -36 -24 -68.5t-35 -63.5q-26 -41 -62 -74q-13 -15 -31 -26q-15 -9 -31.5 -13.5t-37.5 0.5q-31 14 -34 49q-4 22 -3.5 42.5t4.5 40.5q14 63 36 119
q21 58 46 114.5t56 111.5q5 9 10.5 18t13.5 18q2 4 5.5 7t8.5 7zM34 -9q6 -9 12 -11t13 0q16 4 29 13q26 16 44.5 36t34.5 43q28 40 47.5 83.5t28.5 92.5q3 20 6 39t4 39q6 47 -2 98q-2 11 -5.5 21t-11.5 18q-19 8 -28 -9q-3 -3 -4.5 -7t-7.5 -4q-3 2 -7.5 4.5t-9.5 4.5
q-8 -13 -14.5 -24.5t-11.5 -24.5q-26 -50 -48.5 -101t-41.5 -104q-10 -27 -18 -54t-13 -56q-2 -17 -3 -34.5t-1 -34.5q3 -14 8 -28zM242 643q12 -2 16.5 -9t7.5 -15q5 -17 10 -34.5t8 -34.5l2 -12t2 -11q-8 -8 -16 -1q-8 5 -10 18q-6 32 -18 64q-5 0 -7.5 -3.5t-5.5 -5.5
q-4 -3 -7 -6.5t-6 -7.5q-3 -3 -5.5 -6t-5.5 -6q-3 -4 -6 -7.5t-7 -6.5q-2 -2 -5 -2t-6 -1q-2 3 -3.5 6t-3.5 5v4q2 4 4.5 8.5t5.5 7.5q14 14 26 30t30 26z" />
    <glyph glyph-name="Otilde" unicode="&#xd5;" horiz-adv-x="301" 
d="M182 490q5 -2 10.5 -2.5t13.5 -2.5q15 6 34 -4q9 -5 15 -13t10 -17q7 -18 11 -36t3 -36q-1 -44 -5 -86.5t-14 -84.5q-9 -36 -24 -68.5t-35 -63.5q-26 -41 -62 -74q-13 -15 -31 -26q-15 -9 -31.5 -13.5t-37.5 0.5q-31 14 -34 49q-4 22 -3.5 42.5t4.5 40.5q14 63 36 119
q21 58 46 114.5t56 111.5q5 9 10.5 18t13.5 18q2 4 5.5 7t8.5 7zM34 -9q6 -9 12 -11t13 0q16 4 29 13q26 16 44.5 36t34.5 43q28 40 47.5 83.5t28.5 92.5q3 20 6 39t4 39q6 47 -2 98q-2 11 -5.5 21t-11.5 18q-19 8 -28 -9q-3 -3 -4.5 -7t-7.5 -4q-3 2 -7.5 4.5t-9.5 4.5
q-8 -13 -14.5 -24.5t-11.5 -24.5q-26 -50 -48.5 -101t-41.5 -104q-10 -27 -18 -54t-13 -56q-2 -17 -3 -34.5t-1 -34.5q3 -14 8 -28zM183 571q-14 -2 -23 -9t-19 -14q-2 2 -5 3.5t-5 3.5q-1 10 4 15.5t11 10.5q26 21 53 5q7 -4 13 -8t13 -8q13 -8 26 -1q9 5 18.5 9t18.5 9
q8 5 16.5 9.5t17.5 6.5q6 -4 7 -6t3 -10q-12 -8 -23.5 -17.5t-24.5 -17.5q-5 -5 -11.5 -7t-13.5 -4q-8 -4 -21 0q-15 4 -30 14q-6 5 -12.5 8.5t-12.5 7.5z" />
    <glyph glyph-name="Odieresis" unicode="&#xd6;" horiz-adv-x="301" 
d="M182 490q5 -2 10.5 -2.5t13.5 -2.5q15 6 34 -4q9 -5 15 -13t10 -17q7 -18 11 -36t3 -36q-1 -44 -5 -86.5t-14 -84.5q-9 -36 -24 -68.5t-35 -63.5q-26 -41 -62 -74q-13 -15 -31 -26q-15 -9 -31.5 -13.5t-37.5 0.5q-31 14 -34 49q-4 22 -3.5 42.5t4.5 40.5q14 63 36 119
q21 58 46 114.5t56 111.5q5 9 10.5 18t13.5 18q2 4 5.5 7t8.5 7zM34 -9q6 -9 12 -11t13 0q16 4 29 13q26 16 44.5 36t34.5 43q28 40 47.5 83.5t28.5 92.5q3 20 6 39t4 39q6 47 -2 98q-2 11 -5.5 21t-11.5 18q-19 8 -28 -9q-3 -3 -4.5 -7t-7.5 -4q-3 2 -7.5 4.5t-9.5 4.5
q-8 -13 -14.5 -24.5t-11.5 -24.5q-26 -50 -48.5 -101t-41.5 -104q-10 -27 -18 -54t-13 -56q-2 -17 -3 -34.5t-1 -34.5q3 -14 8 -28zM260 538q-11 -11 -21 -5q-5 3 -8.5 8t-1.5 13q4 8 10.5 9.5t14.5 3.5q14 -5 9 -17zM194 573l5 -5t7 -6q-2 -5 -3.5 -10t-3.5 -9
q-12 -11 -21 -3q-11 9 -4 22q2 4 5 5t15 6z" />
    <glyph glyph-name="Oslash" unicode="&#xd8;" horiz-adv-x="301" 
d="M182 490q5 -2 10.5 -2.5t13.5 -2.5q15 6 34 -4q9 -5 15 -13t10 -17q7 -18 11 -36t3 -36q-1 -44 -5 -86.5t-14 -84.5q-9 -36 -24 -68.5t-35 -63.5q-26 -41 -62 -74q-13 -15 -31 -26q-15 -9 -31.5 -13.5t-37.5 0.5q-31 14 -34 49q-4 22 -3.5 42.5t4.5 40.5q14 63 36 119
q21 58 46 114.5t56 111.5q5 9 10.5 18t13.5 18q2 4 5.5 7t8.5 7zM34 -9q6 -9 12 -11t13 0q16 4 29 13q26 16 44.5 36t34.5 43q28 40 47.5 83.5t28.5 92.5q3 20 6 39t4 39q6 47 -2 98q-2 11 -5.5 21t-11.5 18q-19 8 -28 -9q-3 -3 -4.5 -7t-7.5 -4q-3 2 -7.5 4.5t-9.5 4.5
q-8 -13 -14.5 -24.5t-11.5 -24.5q-26 -50 -48.5 -101t-41.5 -104q-10 -27 -18 -54t-13 -56q-2 -17 -3 -34.5t-1 -34.5q3 -14 8 -28zM-19 -30q-8 -5 -13 2q-4 9 3 21q10 17 19 34.5t20 34.5q36 55 71.5 109.5t72.5 108.5q26 40 55 77.5t59 74.5q7 8 13.5 17t14.5 17
q5 6 10 10.5t10 9.5q12 1 14.5 0t6.5 -8q-99 -121 -188.5 -247.5t-167.5 -260.5z" />
    <glyph glyph-name="Ugrave" unicode="&#xd9;" horiz-adv-x="370" 
d="M334 365q-5 0 -8 -3.5t-5 -7.5q-17 -22 -33 -44.5t-33 -44.5q-27 -38 -53.5 -73.5t-53.5 -70.5q-24 -36 -55 -64q-11 -9 -20.5 -16t-20.5 -12q-27 -10 -42 19q-8 14 -10 36q-1 40 8 81q6 24 16 57.5t22 68.5t24.5 67.5t22.5 55.5q4 9 7.5 17.5t11.5 13.5q11 3 13 1t4 -17
q-11 -11 -17 -24.5t-11 -27.5q-6 -18 -16 -45.5t-20.5 -57.5t-19.5 -58t-13 -47q-5 -23 -8 -46t-1 -48q1 -5 2.5 -11.5t6.5 -11.5q10 -4 21 4q9 7 18.5 13.5t17.5 15.5q18 22 36 43.5t36 44.5q19 26 37 51t37 51q23 31 44.5 62t42.5 62q14 20 27.5 39.5t27.5 39.5q3 5 7 9
t7 9q16 4 20 -12q-1 -8 -4 -16l-6 -16q-24 -54 -43 -110.5t-36 -113.5q-13 -43 -20 -64.5t-11.5 -38.5t-9.5 -39.5t-14 -66.5q-5 -19 -7.5 -38t-6.5 -38q-1 -6 0.5 -12.5t2.5 -13.5q-2 -1 -3 -2.5t-3 -3.5q-12 1 -18 14q-1 2 -1 3t-1 3q-2 20 0.5 39.5t6.5 39.5
q7 34 11.5 57.5t8.5 41.5t8 34t9.5 34t12.5 41t18 56q6 20 12.5 38.5t13.5 37.5q1 5 1.5 8.5t1.5 8.5q1 1 2.5 1t-0.5 2q-1 -1 -1 -2t-1 -3zM270 505q-4 -2 -7.5 -2.5t-7.5 -2.5q-3 2 -7 4.5t-6 4.5q-7 8 -14 17t-14 17q-12 16 -24 31.5t-24 32.5q-4 5 -5 11q2 5 5.5 6
t8.5 2q9 -4 14.5 -11t10.5 -14q11 -16 22 -31t22 -31q4 -4 7 -8t6 -7q2 -3 6 -5t8 -5q0 -6 -1 -9z" />
    <glyph glyph-name="Uacute" unicode="&#xda;" horiz-adv-x="370" 
d="M334 365q-5 0 -8 -3.5t-5 -7.5q-17 -22 -33 -44.5t-33 -44.5q-27 -38 -53.5 -73.5t-53.5 -70.5q-24 -36 -55 -64q-11 -9 -20.5 -16t-20.5 -12q-27 -10 -42 19q-8 14 -10 36q-1 40 8 81q6 24 16 57.5t22 68.5t24.5 67.5t22.5 55.5q4 9 7.5 17.5t11.5 13.5q11 3 13 1t4 -17
q-11 -11 -17 -24.5t-11 -27.5q-6 -18 -16 -45.5t-20.5 -57.5t-19.5 -58t-13 -47q-5 -23 -8 -46t-1 -48q1 -5 2.5 -11.5t6.5 -11.5q10 -4 21 4q9 7 18.5 13.5t17.5 15.5q18 22 36 43.5t36 44.5q19 26 37 51t37 51q23 31 44.5 62t42.5 62q14 20 27.5 39.5t27.5 39.5q3 5 7 9
t7 9q16 4 20 -12q-1 -8 -4 -16l-6 -16q-24 -54 -43 -110.5t-36 -113.5q-13 -43 -20 -64.5t-11.5 -38.5t-9.5 -39.5t-14 -66.5q-5 -19 -7.5 -38t-6.5 -38q-1 -6 0.5 -12.5t2.5 -13.5q-2 -1 -3 -2.5t-3 -3.5q-12 1 -18 14q-1 2 -1 3t-1 3q-2 20 0.5 39.5t6.5 39.5
q7 34 11.5 57.5t8.5 41.5t8 34t9.5 34t12.5 41t18 56q6 20 12.5 38.5t13.5 37.5q1 5 1.5 8.5t1.5 8.5q1 1 2.5 1t-0.5 2q-1 -1 -1 -2t-1 -3zM377 613q-16 -16 -34 -28.5t-34 -26.5q-16 -15 -32 -29l-32 -28q-16 -3 -17 14q2 3 4.5 7t5.5 8q23 26 49.5 46t54.5 40q5 3 10 6.5
t11 3.5q11 -1 14 -13z" />
    <glyph glyph-name="Ucircumflex" unicode="&#xdb;" horiz-adv-x="370" 
d="M334 365q-5 0 -8 -3.5t-5 -7.5q-17 -22 -33 -44.5t-33 -44.5q-27 -38 -53.5 -73.5t-53.5 -70.5q-24 -36 -55 -64q-11 -9 -20.5 -16t-20.5 -12q-27 -10 -42 19q-8 14 -10 36q-1 40 8 81q6 24 16 57.5t22 68.5t24.5 67.5t22.5 55.5q4 9 7.5 17.5t11.5 13.5q11 3 13 1t4 -17
q-11 -11 -17 -24.5t-11 -27.5q-6 -18 -16 -45.5t-20.5 -57.5t-19.5 -58t-13 -47q-5 -23 -8 -46t-1 -48q1 -5 2.5 -11.5t6.5 -11.5q10 -4 21 4q9 7 18.5 13.5t17.5 15.5q18 22 36 43.5t36 44.5q19 26 37 51t37 51q23 31 44.5 62t42.5 62q14 20 27.5 39.5t27.5 39.5q3 5 7 9
t7 9q16 4 20 -12q-1 -8 -4 -16l-6 -16q-24 -54 -43 -110.5t-36 -113.5q-13 -43 -20 -64.5t-11.5 -38.5t-9.5 -39.5t-14 -66.5q-5 -19 -7.5 -38t-6.5 -38q-1 -6 0.5 -12.5t2.5 -13.5q-2 -1 -3 -2.5t-3 -3.5q-12 1 -18 14q-1 2 -1 3t-1 3q-2 20 0.5 39.5t6.5 39.5
q7 34 11.5 57.5t8.5 41.5t8 34t9.5 34t12.5 41t18 56q6 20 12.5 38.5t13.5 37.5q1 5 1.5 8.5t1.5 8.5q1 1 2.5 1t-0.5 2q-1 -1 -1 -2t-1 -3zM305 642q12 -2 16.5 -9t7.5 -15q5 -17 10 -34.5t8 -34.5l2 -12t2 -11q-8 -8 -16 -1q-8 5 -10 18q-6 32 -18 64q-5 0 -7.5 -3.5
t-5.5 -5.5q-4 -3 -7 -6.5t-6 -7.5q-3 -3 -5.5 -6t-5.5 -6q-3 -4 -6 -7.5t-7 -6.5q-2 -2 -5 -2t-6 -1q-2 3 -3.5 6t-3.5 5v4q2 4 4.5 8.5t5.5 7.5q14 14 26 30t30 26z" />
    <glyph glyph-name="Udieresis" unicode="&#xdc;" horiz-adv-x="370" 
d="M334 365q-5 0 -8 -3.5t-5 -7.5q-17 -22 -33 -44.5t-33 -44.5q-27 -38 -53.5 -73.5t-53.5 -70.5q-24 -36 -55 -64q-11 -9 -20.5 -16t-20.5 -12q-27 -10 -42 19q-8 14 -10 36q-1 40 8 81q6 24 16 57.5t22 68.5t24.5 67.5t22.5 55.5q4 9 7.5 17.5t11.5 13.5q11 3 13 1t4 -17
q-11 -11 -17 -24.5t-11 -27.5q-6 -18 -16 -45.5t-20.5 -57.5t-19.5 -58t-13 -47q-5 -23 -8 -46t-1 -48q1 -5 2.5 -11.5t6.5 -11.5q10 -4 21 4q9 7 18.5 13.5t17.5 15.5q18 22 36 43.5t36 44.5q19 26 37 51t37 51q23 31 44.5 62t42.5 62q14 20 27.5 39.5t27.5 39.5q3 5 7 9
t7 9q16 4 20 -12q-1 -8 -4 -16l-6 -16q-24 -54 -43 -110.5t-36 -113.5q-13 -43 -20 -64.5t-11.5 -38.5t-9.5 -39.5t-14 -66.5q-5 -19 -7.5 -38t-6.5 -38q-1 -6 0.5 -12.5t2.5 -13.5q-2 -1 -3 -2.5t-3 -3.5q-12 1 -18 14q-1 2 -1 3t-1 3q-2 20 0.5 39.5t6.5 39.5
q7 34 11.5 57.5t8.5 41.5t8 34t9.5 34t12.5 41t18 56q6 20 12.5 38.5t13.5 37.5q1 5 1.5 8.5t1.5 8.5q1 1 2.5 1t-0.5 2q-1 -1 -1 -2t-1 -3zM315 527q-11 -11 -21 -5q-5 3 -8.5 8t-1.5 13q4 8 10.5 9.5t14.5 3.5q14 -5 9 -17zM249 562l5 -5t7 -6q-2 -5 -3.5 -10t-3.5 -9
q-12 -11 -21 -3q-11 9 -4 22q2 4 5 5t15 6z" />
    <glyph glyph-name="Yacute" unicode="&#xdd;" horiz-adv-x="494" 
d="M326 102q11 5 19 10q30 20 59.5 40t61.5 37q10 6 19.5 10.5t19.5 9.5q4 2 8 2.5t9 1.5q2 -2 4 -4.5t4 -4.5q-2 -5 -3 -6q-4 -3 -7.5 -6.5t-8.5 -5.5q-51 -27 -97.5 -59.5t-93.5 -65.5q-5 -3 -9.5 -6t-9.5 -8q-5 -11 -10.5 -22.5t-10.5 -23.5q-17 -38 -35.5 -74.5
t-41.5 -71.5q-20 -33 -45 -59q-26 -29 -59 -39q-16 -5 -31.5 -5t-30.5 8q-20 9 -21 30q-2 21 7 37q9 18 20 33.5t25 29.5q35 38 73 71.5t80 62.5q3 2 6 5t7 5q16 8 24.5 21t15.5 30q17 42 32 83.5t28 84.5l14 46t15 46q0 5 1 9q-6 -3 -8 -5q-21 -20 -42 -39.5t-43 -39.5
q-33 -29 -66.5 -57t-70.5 -53q-7 -6 -16 -11t-16 -8.5t-13.5 -6t-14 -4.5t-18.5 -4q-5 1 -11.5 2t-12.5 3q-16 10 -23 24.5t-9 32.5q-1 46 8 93q10 47 22.5 92.5t31.5 89.5q8 21 18.5 41.5t20.5 40.5q2 2 3.5 4t3.5 4q17 -3 14 -16q-2 -2 -2.5 -5t-2.5 -5q-26 -49 -43 -101
t-30 -106q-3 -13 -5 -25.5t-6 -25.5q-5 -16 -5 -32t-4 -33q-2 -11 0.5 -21t6.5 -20q1 -3 3.5 -5t4.5 -4q10 -5 18.5 -3t16.5 6q20 9 39 20.5t36 25.5q57 45 108.5 92.5t100.5 99.5q5 6 10 11l9 9q16 4 23 -4q11 -10 8 -22q-2 -11 -4 -20.5t-4 -20.5q-8 -33 -17.5 -66
t-20.5 -66l-33 -99q-2 -4 -3 -7.5t1 -8.5q-1 0 -1.5 -0.5t-1.5 -0.5zM229 -9q-2 -1 -3.5 -1t-3.5 -2q-36 -28 -69.5 -58t-64.5 -64q-9 -11 -17.5 -22.5t-16.5 -23.5q-6 -10 -9 -23q-4 -10 4 -15q18 -4 33.5 2t29.5 17q11 9 20 19t17 21q25 35 44.5 72t36.5 75q-1 0 -1 1v2z
M392 605q-16 -16 -34 -28.5t-34 -26.5q-16 -15 -32 -29l-32 -28q-16 -3 -17 14q2 3 4.5 7t5.5 8q23 26 49.5 46t54.5 40q5 3 10 6.5t11 3.5q11 -1 14 -13z" />
    <glyph glyph-name="agrave" unicode="&#xe0;" horiz-adv-x="230" 
d="M-9 79q-6 -2 -8 -2q-21 2 -20 20q0 7 2 17q12 32 27 61.5t38 55.5q3 4 6.5 7t7.5 7q10 9 21.5 13.5t27.5 -0.5q4 -3 8 -6.5t9 -8.5q5 0 7 2t4 5q7 8 13.5 15.5t14.5 15.5q2 0 5 0.5t6 0.5q7 -2 10.5 -7t1.5 -11q-3 -13 -9 -23q-12 -29 -25 -56q-5 -11 -7.5 -23t-5.5 -24
q-1 -5 0.5 -7t6.5 -9q8 -1 14 2t11 8q7 5 12.5 8.5t10 7t9.5 7.5t12 9q8 6 15 12t14 11q16 0 16 -14l-2 -4t-3 -4q-18 -16 -30 -26.5t-30 -26.5q-5 -5 -11 -8l-12 -6q-15 -8 -35 -3q-11 2 -18.5 12t-9.5 22q-1 11 -0.5 21.5t4.5 21.5q2 4 2.5 7t-2.5 8q-11 -8 -18.5 -18.5
t-16.5 -19.5q-9 -8 -17.5 -17.5t-16.5 -17.5q-10 -9 -19 -18.5t-20 -16.5zM-9 112l8 4q26 25 50 50t45 53l2 7q-2 4 -4.5 8.5t-5.5 9.5q-10 -2 -14 -4q-10 -5 -17 -12t-13 -15q-29 -38 -45 -81q-2 -5 -3 -9.5t-3 -10.5zM169 317q-4 -2 -7.5 -2.5t-7.5 -2.5q-3 2 -7 4.5
t-6 4.5q-7 8 -14 17t-14 17q-12 16 -24 31.5t-24 32.5q-4 5 -5 11q2 5 5.5 6t8.5 2q9 -4 14.5 -11t10.5 -14q11 -16 22 -31t22 -31q4 -4 7 -8t6 -7q2 -3 6 -5t8 -5q0 -6 -1 -9z" />
    <glyph glyph-name="aacute" unicode="&#xe1;" horiz-adv-x="230" 
d="M-9 79q-6 -2 -8 -2q-21 2 -20 20q0 7 2 17q12 32 27 61.5t38 55.5q3 4 6.5 7t7.5 7q10 9 21.5 13.5t27.5 -0.5q4 -3 8 -6.5t9 -8.5q5 0 7 2t4 5q7 8 13.5 15.5t14.5 15.5q2 0 5 0.5t6 0.5q7 -2 10.5 -7t1.5 -11q-3 -13 -9 -23q-12 -29 -25 -56q-5 -11 -7.5 -23t-5.5 -24
q-1 -5 0.5 -7t6.5 -9q8 -1 14 2t11 8q7 5 12.5 8.5t10 7t9.5 7.5t12 9q8 6 15 12t14 11q16 0 16 -14l-2 -4t-3 -4q-18 -16 -30 -26.5t-30 -26.5q-5 -5 -11 -8l-12 -6q-15 -8 -35 -3q-11 2 -18.5 12t-9.5 22q-1 11 -0.5 21.5t4.5 21.5q2 4 2.5 7t-2.5 8q-11 -8 -18.5 -18.5
t-16.5 -19.5q-9 -8 -17.5 -17.5t-16.5 -17.5q-10 -9 -19 -18.5t-20 -16.5zM-9 112l8 4q26 25 50 50t45 53l2 7q-2 4 -4.5 8.5t-5.5 9.5q-10 -2 -14 -4q-10 -5 -17 -12t-13 -15q-29 -38 -45 -81q-2 -5 -3 -9.5t-3 -10.5zM191 400q-16 -16 -34 -28.5t-34 -26.5
q-16 -15 -32 -29l-32 -28q-16 -3 -17 14q2 3 4.5 7t5.5 8q23 26 49.5 46t54.5 40q5 3 10 6.5t11 3.5q11 -1 14 -13z" />
    <glyph glyph-name="acircumflex" unicode="&#xe2;" horiz-adv-x="230" 
d="M-9 79q-6 -2 -8 -2q-21 2 -20 20q0 7 2 17q12 32 27 61.5t38 55.5q3 4 6.5 7t7.5 7q10 9 21.5 13.5t27.5 -0.5q4 -3 8 -6.5t9 -8.5q5 0 7 2t4 5q7 8 13.5 15.5t14.5 15.5q2 0 5 0.5t6 0.5q7 -2 10.5 -7t1.5 -11q-3 -13 -9 -23q-12 -29 -25 -56q-5 -11 -7.5 -23t-5.5 -24
q-1 -5 0.5 -7t6.5 -9q8 -1 14 2t11 8q7 5 12.5 8.5t10 7t9.5 7.5t12 9q8 6 15 12t14 11q16 0 16 -14l-2 -4t-3 -4q-18 -16 -30 -26.5t-30 -26.5q-5 -5 -11 -8l-12 -6q-15 -8 -35 -3q-11 2 -18.5 12t-9.5 22q-1 11 -0.5 21.5t4.5 21.5q2 4 2.5 7t-2.5 8q-11 -8 -18.5 -18.5
t-16.5 -19.5q-9 -8 -17.5 -17.5t-16.5 -17.5q-10 -9 -19 -18.5t-20 -16.5zM-9 112l8 4q26 25 50 50t45 53l2 7q-2 4 -4.5 8.5t-5.5 9.5q-10 -2 -14 -4q-10 -5 -17 -12t-13 -15q-29 -38 -45 -81q-2 -5 -3 -9.5t-3 -10.5zM127 419q12 -2 16.5 -9t7.5 -15q5 -17 10 -34.5
t8 -34.5l2 -12t2 -11q-8 -8 -16 -1q-8 5 -10 18q-6 32 -18 64q-5 0 -7.5 -3.5t-5.5 -5.5q-4 -3 -7 -6.5t-6 -7.5q-3 -3 -5.5 -6t-5.5 -6q-3 -4 -6 -7.5t-7 -6.5q-2 -2 -5 -2t-6 -1q-2 3 -3.5 6t-3.5 5v4q2 4 4.5 8.5t5.5 7.5q14 14 26 30t30 26z" />
    <glyph glyph-name="atilde" unicode="&#xe3;" horiz-adv-x="230" 
d="M-9 79q-6 -2 -8 -2q-21 2 -20 20q0 7 2 17q12 32 27 61.5t38 55.5q3 4 6.5 7t7.5 7q10 9 21.5 13.5t27.5 -0.5q4 -3 8 -6.5t9 -8.5q5 0 7 2t4 5q7 8 13.5 15.5t14.5 15.5q2 0 5 0.5t6 0.5q7 -2 10.5 -7t1.5 -11q-3 -13 -9 -23q-12 -29 -25 -56q-5 -11 -7.5 -23t-5.5 -24
q-1 -5 0.5 -7t6.5 -9q8 -1 14 2t11 8q7 5 12.5 8.5t10 7t9.5 7.5t12 9q8 6 15 12t14 11q16 0 16 -14l-2 -4t-3 -4q-18 -16 -30 -26.5t-30 -26.5q-5 -5 -11 -8l-12 -6q-15 -8 -35 -3q-11 2 -18.5 12t-9.5 22q-1 11 -0.5 21.5t4.5 21.5q2 4 2.5 7t-2.5 8q-11 -8 -18.5 -18.5
t-16.5 -19.5q-9 -8 -17.5 -17.5t-16.5 -17.5q-10 -9 -19 -18.5t-20 -16.5zM-9 112l8 4q26 25 50 50t45 53l2 7q-2 4 -4.5 8.5t-5.5 9.5q-10 -2 -14 -4q-10 -5 -17 -12t-13 -15q-29 -38 -45 -81q-2 -5 -3 -9.5t-3 -10.5zM67 345q-14 -2 -23 -9t-19 -14q-2 2 -5 3.5t-5 3.5
q-1 10 4 15.5t11 10.5q26 21 53 5q7 -4 13 -8t13 -8q13 -8 26 -1q9 5 18.5 9t18.5 9q8 5 16.5 9.5t17.5 6.5q6 -4 7 -6t3 -10q-12 -8 -23.5 -17.5t-24.5 -17.5q-5 -5 -11.5 -7t-13.5 -4q-8 -4 -21 0q-15 4 -30 14q-6 5 -12.5 8.5t-12.5 7.5z" />
    <glyph glyph-name="adieresis" unicode="&#xe4;" horiz-adv-x="230" 
d="M-9 79q-6 -2 -8 -2q-21 2 -20 20q0 7 2 17q12 32 27 61.5t38 55.5q3 4 6.5 7t7.5 7q10 9 21.5 13.5t27.5 -0.5q4 -3 8 -6.5t9 -8.5q5 0 7 2t4 5q7 8 13.5 15.5t14.5 15.5q2 0 5 0.5t6 0.5q7 -2 10.5 -7t1.5 -11q-3 -13 -9 -23q-12 -29 -25 -56q-5 -11 -7.5 -23t-5.5 -24
q-1 -5 0.5 -7t6.5 -9q8 -1 14 2t11 8q7 5 12.5 8.5t10 7t9.5 7.5t12 9q8 6 15 12t14 11q16 0 16 -14l-2 -4t-3 -4q-18 -16 -30 -26.5t-30 -26.5q-5 -5 -11 -8l-12 -6q-15 -8 -35 -3q-11 2 -18.5 12t-9.5 22q-1 11 -0.5 21.5t4.5 21.5q2 4 2.5 7t-2.5 8q-11 -8 -18.5 -18.5
t-16.5 -19.5q-9 -8 -17.5 -17.5t-16.5 -17.5q-10 -9 -19 -18.5t-20 -16.5zM-9 112l8 4q26 25 50 50t45 53l2 7q-2 4 -4.5 8.5t-5.5 9.5q-10 -2 -14 -4q-10 -5 -17 -12t-13 -15q-29 -38 -45 -81q-2 -5 -3 -9.5t-3 -10.5zM156 320q-11 -11 -21 -5q-5 3 -8.5 8t-1.5 13
q4 8 10.5 9.5t14.5 3.5q14 -5 9 -17zM90 355l5 -5t7 -6q-2 -5 -3.5 -10t-3.5 -9q-12 -11 -21 -3q-11 9 -4 22q2 4 5 5t15 6z" />
    <glyph glyph-name="aring" unicode="&#xe5;" horiz-adv-x="230" 
d="M-9 79q-6 -2 -8 -2q-21 2 -20 20q0 7 2 17q12 32 27 61.5t38 55.5q3 4 6.5 7t7.5 7q10 9 21.5 13.5t27.5 -0.5q4 -3 8 -6.5t9 -8.5q5 0 7 2t4 5q7 8 13.5 15.5t14.5 15.5q2 0 5 0.5t6 0.5q7 -2 10.5 -7t1.5 -11q-3 -13 -9 -23q-12 -29 -25 -56q-5 -11 -7.5 -23t-5.5 -24
q-1 -5 0.5 -7t6.5 -9q8 -1 14 2t11 8q7 5 12.5 8.5t10 7t9.5 7.5t12 9q8 6 15 12t14 11q16 0 16 -14l-2 -4t-3 -4q-18 -16 -30 -26.5t-30 -26.5q-5 -5 -11 -8l-12 -6q-15 -8 -35 -3q-11 2 -18.5 12t-9.5 22q-1 11 -0.5 21.5t4.5 21.5q2 4 2.5 7t-2.5 8q-11 -8 -18.5 -18.5
t-16.5 -19.5q-9 -8 -17.5 -17.5t-16.5 -17.5q-10 -9 -19 -18.5t-20 -16.5zM-9 112l8 4q26 25 50 50t45 53l2 7q-2 4 -4.5 8.5t-5.5 9.5q-10 -2 -14 -4q-10 -5 -17 -12t-13 -15q-29 -38 -45 -81q-2 -5 -3 -9.5t-3 -10.5zM78 309q-2 5 -3.5 10.5t-3.5 10.5q3 24 14 43t28 36
q23 22 51 19q13 -5 20 -19q11 -19 3 -39q-11 -27 -30 -48q-7 -8 -15 -12.5t-17 -8.5q-13 -5 -24.5 -4t-22.5 12zM140 400q-13 -11 -21.5 -23.5t-15.5 -26.5q-2 -5 -3 -10.5t-3 -10.5q0 -2 1 -5t2 -5q16 1 26.5 9t18.5 20q8 13 15 26t3 30q-7 -2 -12.5 -2.5t-10.5 -1.5z" />
    <glyph glyph-name="ccedilla" unicode="&#xe7;" horiz-adv-x="208" 
d="M223 177q-4 -8 -9.5 -13t-11.5 -10q-14 -12 -22.5 -17.5t-16 -10t-17 -9.5t-24.5 -15q-14 -8 -28 -15t-28 -15q-19 -10 -42 -10t-34 13t-13 31q-2 8 0 16q10 46 33.5 83t62.5 63q17 11 36 11q5 0 8 -1q9 -2 12 -10q5 -10 -7 -17q-2 1 -5 2t-7 2q-3 0 -5 -1
q-16 -8 -28 -19.5t-23 -25.5q-15 -17 -25 -37t-17 -43q-6 -17 -2 -36l6 -2t7 -1q11 -1 21.5 3t20.5 9q20 11 39.5 21.5t39.5 22.5q12 7 18 10t10.5 5.5t10 6.5t16.5 13q6 4 9 5q8 5 15 -9zM-24 -75q6 4 10 6.5t9 5.5q5 -3 8.5 -5.5t7.5 -5.5q13 5 22.5 12.5t13.5 22.5
q-2 7 -3.5 14.5t-8.5 14.5q-6 1 -12 1.5t-13 2.5q-2 4 -4 7.5t-2 7.5q0 18 4.5 34.5t12.5 33.5q2 3 8 7q6 -2 7.5 -3t5.5 -6q0 -1 0.5 -2t-0.5 -3q-4 -13 -7.5 -26t-4.5 -27q23 -9 31.5 -26t10.5 -39q1 -23 -20 -41q-5 -3 -9 -6t-8 -5q-17 -5 -37 -2q-12 3 -16 10
q-2 3 -3 7.5t-3 9.5z" />
    <glyph glyph-name="egrave" unicode="&#xe8;" horiz-adv-x="199" 
d="M-8 172q18 49 62 75q5 3 12 5t13 4q13 3 24 -5q19 -12 9 -33q-3 -7 -7.5 -11.5l-9.5 -9.5q-30 -22 -66 -34q-2 0 -4 -1l-4 -2q-15 -35 -12 -51t18 -18.5t37.5 6t47 22.5t47 31t36.5 31q8 5 12 4t12 -9q-2 -3 -3.5 -7t-4.5 -6q-23 -16 -44 -33t-42 -31.5t-45 -23.5t-53 -9
q-24 2 -35 12.5t-13 25.5t2.5 33t10.5 35zM91 234q-15 -3 -26 -11t-20 -19q-2 -2 -4 -5t1 -8q23 9 43 27q3 3 5.5 6t0.5 10zM145 285q-4 -2 -7.5 -2.5t-7.5 -2.5q-3 2 -7 4.5t-6 4.5q-7 8 -14 17t-14 17q-12 16 -24 31.5t-24 32.5q-4 5 -5 11q2 5 5.5 6t8.5 2q9 -4 14.5 -11
t10.5 -14q11 -16 22 -31t22 -31q4 -4 7 -8t6 -7q2 -3 6 -5t8 -5q0 -6 -1 -9z" />
    <glyph glyph-name="eacute" unicode="&#xe9;" horiz-adv-x="199" 
d="M-8 172q18 49 62 75q5 3 12 5t13 4q13 3 24 -5q19 -12 9 -33q-3 -7 -7.5 -11.5l-9.5 -9.5q-30 -22 -66 -34q-2 0 -4 -1l-4 -2q-15 -35 -12 -51t18 -18.5t37.5 6t47 22.5t47 31t36.5 31q8 5 12 4t12 -9q-2 -3 -3.5 -7t-4.5 -6q-23 -16 -44 -33t-42 -31.5t-45 -23.5t-53 -9
q-24 2 -35 12.5t-13 25.5t2.5 33t10.5 35zM91 234q-15 -3 -26 -11t-20 -19q-2 -2 -4 -5t1 -8q23 9 43 27q3 3 5.5 6t0.5 10zM160 390q-16 -16 -34 -28.5t-34 -26.5q-16 -15 -32 -29l-32 -28q-16 -3 -17 14q2 3 4.5 7t5.5 8q23 26 49.5 46t54.5 40q5 3 10 6.5t11 3.5
q11 -1 14 -13z" />
    <glyph glyph-name="ecircumflex" unicode="&#xea;" horiz-adv-x="199" 
d="M-8 172q18 49 62 75q5 3 12 5t13 4q13 3 24 -5q19 -12 9 -33q-3 -7 -7.5 -11.5l-9.5 -9.5q-30 -22 -66 -34q-2 0 -4 -1l-4 -2q-15 -35 -12 -51t18 -18.5t37.5 6t47 22.5t47 31t36.5 31q8 5 12 4t12 -9q-2 -3 -3.5 -7t-4.5 -6q-23 -16 -44 -33t-42 -31.5t-45 -23.5t-53 -9
q-24 2 -35 12.5t-13 25.5t2.5 33t10.5 35zM91 234q-15 -3 -26 -11t-20 -19q-2 -2 -4 -5t1 -8q23 9 43 27q3 3 5.5 6t0.5 10zM100 392q12 -2 16.5 -9t7.5 -15q5 -17 10 -34.5t8 -34.5l2 -12t2 -11q-8 -8 -16 -1q-8 5 -10 18q-6 32 -18 64q-5 0 -7.5 -3.5t-5.5 -5.5
q-4 -3 -7 -6.5t-6 -7.5q-3 -3 -5.5 -6t-5.5 -6q-3 -4 -6 -7.5t-7 -6.5q-2 -2 -5 -2t-6 -1q-2 3 -3.5 6t-3.5 5v4q2 4 4.5 8.5t5.5 7.5q14 14 26 30t30 26z" />
    <glyph glyph-name="edieresis" unicode="&#xeb;" horiz-adv-x="199" 
d="M-8 172q18 49 62 75q5 3 12 5t13 4q13 3 24 -5q19 -12 9 -33q-3 -7 -7.5 -11.5l-9.5 -9.5q-30 -22 -66 -34q-2 0 -4 -1l-4 -2q-15 -35 -12 -51t18 -18.5t37.5 6t47 22.5t47 31t36.5 31q8 5 12 4t12 -9q-2 -3 -3.5 -7t-4.5 -6q-23 -16 -44 -33t-42 -31.5t-45 -23.5t-53 -9
q-24 2 -35 12.5t-13 25.5t2.5 33t10.5 35zM91 234q-15 -3 -26 -11t-20 -19q-2 -2 -4 -5t1 -8q23 9 43 27q3 3 5.5 6t0.5 10zM133 294q-11 -11 -21 -5q-5 3 -8.5 8t-1.5 13q4 8 10.5 9.5t14.5 3.5q14 -5 9 -17zM67 329l5 -5t7 -6q-2 -5 -3.5 -10t-3.5 -9q-12 -11 -21 -3
q-11 9 -4 22q2 4 5 5t15 6z" />
    <glyph glyph-name="igrave" unicode="&#xec;" horiz-adv-x="165" 
d="M26 214q5 -8 9 -12.5t2 -9.5q-5 -11 -10 -20.5t-8 -20.5q-7 -20 -8 -37q-3 -11 6 -21q7 -3 9.5 -2t8.5 4q10 5 18.5 10t16.5 10q24 17 47.5 34.5t48.5 36.5q6 2 9 -6q1 -7 -2 -10.5t-6 -6.5q-23 -21 -48 -40t-51 -36q-8 -5 -16.5 -8t-17.5 -7q-13 -5 -27 1q-8 3 -14 8.5
t-9 14.5q-1 3 -1.5 6.5t-2.5 5.5q-1 25 6.5 46.5t17.5 41.5q4 9 11 15q2 2 5 2t6 1zM96 228q-4 -2 -7.5 -2.5t-7.5 -2.5q-3 2 -7 4.5t-6 4.5q-7 8 -14 17t-14 17q-12 16 -24 31.5t-24 32.5q-4 5 -5 11q2 5 5.5 6t8.5 2q9 -4 14.5 -11t10.5 -14q11 -16 22 -31t22 -31
q4 -4 7 -8t6 -7q2 -3 6 -5t8 -5q0 -6 -1 -9z" />
    <glyph glyph-name="iacute" unicode="&#xed;" horiz-adv-x="165" 
d="M26 214q5 -8 9 -12.5t2 -9.5q-5 -11 -10 -20.5t-8 -20.5q-7 -20 -8 -37q-3 -11 6 -21q7 -3 9.5 -2t8.5 4q10 5 18.5 10t16.5 10q24 17 47.5 34.5t48.5 36.5q6 2 9 -6q1 -7 -2 -10.5t-6 -6.5q-23 -21 -48 -40t-51 -36q-8 -5 -16.5 -8t-17.5 -7q-13 -5 -27 1q-8 3 -14 8.5
t-9 14.5q-1 3 -1.5 6.5t-2.5 5.5q-1 25 6.5 46.5t17.5 41.5q4 9 11 15q2 2 5 2t6 1zM104 347q-16 -16 -34 -28.5t-34 -26.5q-16 -15 -32 -29l-32 -28q-16 -3 -17 14q2 3 4.5 7t5.5 8q23 26 49.5 46t54.5 40q5 3 10 6.5t11 3.5q11 -1 14 -13z" />
    <glyph glyph-name="icircumflex" unicode="&#xee;" horiz-adv-x="165" 
d="M26 214q5 -8 9 -12.5t2 -9.5q-5 -11 -10 -20.5t-8 -20.5q-7 -20 -8 -37q-3 -11 6 -21q7 -3 9.5 -2t8.5 4q10 5 18.5 10t16.5 10q24 17 47.5 34.5t48.5 36.5q6 2 9 -6q1 -7 -2 -10.5t-6 -6.5q-23 -21 -48 -40t-51 -36q-8 -5 -16.5 -8t-17.5 -7q-13 -5 -27 1q-8 3 -14 8.5
t-9 14.5q-1 3 -1.5 6.5t-2.5 5.5q-1 25 6.5 46.5t17.5 41.5q4 9 11 15q2 2 5 2t6 1zM36 347q12 -2 16.5 -9t7.5 -15q5 -17 10 -34.5t8 -34.5l2 -12t2 -11q-8 -8 -16 -1q-8 5 -10 18q-6 32 -18 64q-5 0 -7.5 -3.5t-5.5 -5.5q-4 -3 -7 -6.5t-6 -7.5q-3 -3 -5.5 -6t-5.5 -6
q-3 -4 -6 -7.5t-7 -6.5q-2 -2 -5 -2t-6 -1q-2 3 -3.5 6t-3.5 5v4q2 4 4.5 8.5t5.5 7.5q14 14 26 30t30 26z" />
    <glyph glyph-name="idieresis" unicode="&#xef;" horiz-adv-x="165" 
d="M26 214q5 -8 9 -12.5t2 -9.5q-5 -11 -10 -20.5t-8 -20.5q-7 -20 -8 -37q-3 -11 6 -21q7 -3 9.5 -2t8.5 4q10 5 18.5 10t16.5 10q24 17 47.5 34.5t48.5 36.5q6 2 9 -6q1 -7 -2 -10.5t-6 -6.5q-23 -21 -48 -40t-51 -36q-8 -5 -16.5 -8t-17.5 -7q-13 -5 -27 1q-8 3 -14 8.5
t-9 14.5q-1 3 -1.5 6.5t-2.5 5.5q-1 25 6.5 46.5t17.5 41.5q4 9 11 15q2 2 5 2t6 1zM71 248q-11 -11 -21 -5q-5 3 -8.5 8t-1.5 13q4 8 10.5 9.5t14.5 3.5q14 -5 9 -17zM5 283l5 -5t7 -6q-2 -5 -3.5 -10t-3.5 -9q-12 -11 -21 -3q-11 9 -4 22q2 4 5 5t15 6z" />
    <glyph glyph-name="ntilde" unicode="&#xf1;" horiz-adv-x="350" 
d="M195 251q-15 -12 -36 -29.5t-36 -30.5q-19 -15 -37 -30.5t-37 -31.5q-5 -4 -9 -6.5t-9 -6.5q-15 -12 -33 -7q-11 5 -11 18v8.5t1 8.5q5 25 13.5 48t18.5 45q8 4 19.5 2.5t13.5 -6.5q0 -4 -2 -12q-6 -17 -12 -35t-11 -35q4 -4 15 4t24 20t26.5 25t24.5 20l34 28l34 28
q5 4 10 7l10 6q15 5 23 -5q6 -6 6.5 -12.5t-1.5 -13.5q-1 -5 -3 -9t-4 -9q-7 -17 -14 -33t-14 -33q-4 -11 -6.5 -21t-5.5 -21q-2 -11 3 -21.5t16 -8.5q17 5 33 12.5t31 17.5q11 7 26.5 16.5t26.5 17.5q5 3 13 11.5t15 9.5q7 -1 8 -5t0 -11q-2 -5 -3 -5q-21 -14 -46 -31.5
t-46 -31.5q-17 -11 -37 -19q-17 -6 -35 -4q-18 1 -29 19q-4 6 -4.5 14t1 16t3.5 16.5t4 14.5q3 19 9.5 36t14.5 34q2 5 3.5 9t3.5 9zM85 349q-14 -2 -23 -9t-19 -14q-2 2 -5 3.5t-5 3.5q-1 10 4 15.5t11 10.5q26 21 53 5q7 -4 13 -8t13 -8q13 -8 26 -1q9 5 18.5 9t18.5 9
q8 5 16.5 9.5t17.5 6.5q6 -4 7 -6t3 -10q-12 -8 -23.5 -17.5t-24.5 -17.5q-5 -5 -11.5 -7t-13.5 -4q-8 -4 -21 0q-15 4 -30 14q-6 5 -12.5 8.5t-12.5 7.5z" />
    <glyph glyph-name="ograve" unicode="&#xf2;" horiz-adv-x="198" 
d="M64 249h19q11 -5 15.5 -12.5t6.5 -17.5q3 -13 1 -25.5t-5 -31.5q7 -1 12.5 -1t14.5 2t25 8t45 17q8 -6 11 -9q1 -4 1 -7q-4 -8 -14 -11l-33 -15q-13 -5 -20.5 -7.5t-15 -4t-16 -2t-22.5 -0.5q-5 -4 -8.5 -10t-7.5 -12q-9 -14 -18.5 -22t-23.5 -17q-10 -6 -21 -9t-24 0
q-10 4 -15.5 11t-9.5 17q-1 20 5 37t14 33q11 21 22.5 41.5t30.5 35.5q5 -1 9 -1t8 -1zM36 199l-4 -2q-23 -34 -36 -70q-6 -14 -9 -27q-1 -4 -1 -8t5 -8q8 -2 15 1.5t13 7.5q15 9 25 19.5t20 27.5q-15 10 -20 26t-7 31q-2 2 -2 3h2q1 0 1 2q-2 -2 -2 -3zM74 162q6 11 10 26
t3 28q0 9 -9 10q-6 -5 -8.5 -12t-5.5 -14q0 -8 -1.5 -17.5t2.5 -16.5q6 -2 9 -4zM141 263q-4 -2 -7.5 -2.5t-7.5 -2.5q-3 2 -7 4.5t-6 4.5q-7 8 -14 17t-14 17q-12 16 -24 31.5t-24 32.5q-4 5 -5 11q2 5 5.5 6t8.5 2q9 -4 14.5 -11t10.5 -14q11 -16 22 -31t22 -31q4 -4 7 -8
t6 -7q2 -3 6 -5t8 -5q0 -6 -1 -9z" />
    <glyph glyph-name="oacute" unicode="&#xf3;" horiz-adv-x="198" 
d="M64 249h19q11 -5 15.5 -12.5t6.5 -17.5q3 -13 1 -25.5t-5 -31.5q7 -1 12.5 -1t14.5 2t25 8t45 17q8 -6 11 -9q1 -4 1 -7q-4 -8 -14 -11l-33 -15q-13 -5 -20.5 -7.5t-15 -4t-16 -2t-22.5 -0.5q-5 -4 -8.5 -10t-7.5 -12q-9 -14 -18.5 -22t-23.5 -17q-10 -6 -21 -9t-24 0
q-10 4 -15.5 11t-9.5 17q-1 20 5 37t14 33q11 21 22.5 41.5t30.5 35.5q5 -1 9 -1t8 -1zM36 199l-4 -2q-23 -34 -36 -70q-6 -14 -9 -27q-1 -4 -1 -8t5 -8q8 -2 15 1.5t13 7.5q15 9 25 19.5t20 27.5q-15 10 -20 26t-7 31q-2 2 -2 3h2q1 0 1 2q-2 -2 -2 -3zM74 162q6 11 10 26
t3 28q0 9 -9 10q-6 -5 -8.5 -12t-5.5 -14q0 -8 -1.5 -17.5t2.5 -16.5q6 -2 9 -4zM151 374q-16 -16 -34 -28.5t-34 -26.5q-16 -15 -32 -29l-32 -28q-16 -3 -17 14q2 3 4.5 7t5.5 8q23 26 49.5 46t54.5 40q5 3 10 6.5t11 3.5q11 -1 14 -13z" />
    </font>
</defs>
</svg>
